<?xml version="1.0" encoding="UTF-8"?> <svg xmlns="http://www.w3.org/2000/svg" viewBox="0 0 313.6 75.1"><font><glyph d="M557 0l92 0-269 667-103 0-268-667 92 0 59 148 338 0M329 593l144-371-289 0z" unicode="A"></glyph><glyph d="M456 0l437 0 0 74-354 0 0 230 347 0 0 74-347 0 0 215 354 0 0 74-470 0-416-667 92 0 91 148 266 0M456 593l0-371-225 0z" unicode="Æ"></glyph><glyph d="M522 723l169 144-78 0-148-144M456 0l437 0 0 74-354 0 0 230 347 0 0 74-347 0 0 215 354 0 0 74-470 0-416-667 92 0 91 148 266 0M456 593l0-371-225 0z" unicode="Ǽ"></glyph><glyph d="M355 723l169 144-78 0-148-144M557 0l92 0-269 667-103 0-268-667 92 0 59 148 338 0M329 593l144-371-289 0z" unicode="Á"></glyph><glyph d="M329 717C401 717 464 751 504 805l-37 32C436 792 387 765 329 765 270 765 222 793 190 837l-37-32C194 751 258 717 329 717M557 0l92 0-269 667-103 0-268-667 92 0 59 148 338 0M329 593l144-371-289 0z" unicode="Ă"></glyph><glyph d="M412 723l51 0-98 144-72 0-95-144 51 0 80 106M557 0l92 0-269 667-103 0-268-667 92 0 59 148 338 0M329 593l144-371-289 0z" unicode="Â"></glyph><glyph d="M226 733C252 733 272 754 272 780 272 805 252 826 226 826 201 826 180 805 180 780 180 754 201 733 226 733M433 733C458 733 479 754 479 780 479 805 458 826 433 826 407 826 386 805 386 780 386 754 407 733 433 733M557 0l92 0-269 667-103 0-268-667 92 0 59 148 338 0M329 593l144-371-289 0z" unicode="Ä"></glyph><glyph d="M300 723l57 0-148 144-78 0M557 0l92 0-269 667-103 0-268-667 92 0 59 148 338 0M329 593l144-371-289 0z" unicode="À"></glyph><glyph d="M557 0l92 0-269 667-103 0-268-667 92 0 59 148 338 0M329 593l144-371-289 0z" unicode="Α"></glyph><glyph d="M128 574l38 0 57 200-76 0M557 0l92 0-269 667-103 0-268-667 92 0 59 148 338 0M329 593l144-371-289 0z" unicode="Ά"></glyph><glyph d="M175 739l307 0 0 48-307 0M557 0l92 0-269 667-103 0-268-667 92 0 59 148 338 0M329 593l144-371-289 0z" unicode="Ā"></glyph><glyph d="M634 0l15 0-269 667-103 0-268-667 92 0 59 148 338 0 59-148 14 0C513-26 468-66 468-111 468-161 516-186 566-186 593-186 618-179 634-169l-20 45C604-130 592-133 582-133 558-133 540-118 540-94 540-56 578-24 634 0M184 222l145 371 144-371z" unicode="Ą"></glyph><glyph d="M231 808C231 754 275 710 329 710 383 710 427 754 427 808 427 862 383 907 329 907 275 907 231 862 231 808M387 808C387 776 362 749 329 749 297 749 271 776 271 808 271 841 297 867 329 867 362 867 387 841 387 808M557 0l92 0-269 667-103 0-268-667 92 0 59 148 338 0M329 593l144-371-289 0z" unicode="Å"></glyph><glyph d="M313 774C330 749 349 721 389 721 452 721 486 777 486 855l-45 0C441 795 420 769 393 769 371 769 359 788 345 808 328 833 310 861 270 861 207 861 173 805 173 727l45 0C218 787 239 813 266 813 288 813 300 794 313 774M557 0l92 0-269 667-103 0-268-667 92 0 59 148 338 0M329 593l144-371-289 0z" unicode="Ã"></glyph><glyph d="M78 0l304 0C504 0 575 73 575 180 575 260 516 333 445 344 506 357 562 413 562 497 562 597 491 667 375 667l-297 0M161 378l0 215 200 0C436 593 476 545 476 485 476 424 436 378 361 378M161 74l0 230 204 0C447 304 489 250 489 189 489 118 443 74 365 74z" unicode="B"></glyph><glyph d="M78 0l304 0C504 0 575 73 575 180 575 260 516 333 445 344 506 357 562 413 562 497 562 597 491 667 375 667l-297 0M161 378l0 215 200 0C436 593 476 545 476 485 476 424 436 378 361 378M161 74l0 230 204 0C447 304 489 250 489 189 489 118 443 74 365 74z" unicode="Β"></glyph><glyph d="M391-12C512-12 592 44 648 120l-71 39C539 102 470 62 391 62 248 62 137 175 137 333 137 492 248 604 391 604 470 604 539 563 577 507l70 39C594 621 512 678 391 678 202 678 51 538 51 333 51 128 202-12 391-12z" unicode="C"></glyph><glyph unicode=" "></glyph><glyph d="M417 723l169 144-78 0-148-144M391-12C512-12 592 44 648 120l-71 39C539 102 470 62 391 62 248 62 137 175 137 333 137 492 248 604 391 604 470 604 539 563 577 507l70 39C594 621 512 678 391 678 202 678 51 538 51 333 51 128 202-12 391-12z" unicode="Ć"></glyph><glyph d="M355 723l72 0 95 144-51 0-80-106-83 106-51 0M391-12C512-12 592 44 648 120l-71 39C539 102 470 62 391 62 248 62 137 175 137 333 137 492 248 604 391 604 470 604 539 563 577 507l70 39C594 621 512 678 391 678 202 678 51 538 51 333 51 128 202-12 391-12z" unicode="Č"></glyph><glyph d="M648 120l-71 39C539 102 470 62 391 62 248 62 137 175 137 333 137 492 248 604 391 604 470 604 539 563 577 507l70 39C594 621 512 678 391 678 202 678 51 538 51 333 51 139 186 3 362-11l-23-62 33-19C381-82 396-75 410-75 435-75 447-89 447-108 447-137 418-152 386-152 359-152 330-143 306-123l-19-38C307-177 345-191 388-191 445-191 492-160 492-109 492-70 464-44 426-44 413-44 399-48 389-55l17 43C519-7 594 47 648 120z" unicode="Ç"></glyph><glyph d="M474 723l51 0-98 144-72 0-95-144 51 0 80 106M391-12C512-12 592 44 648 120l-71 39C539 102 470 62 391 62 248 62 137 175 137 333 137 492 248 604 391 604 470 604 539 563 577 507l70 39C594 621 512 678 391 678 202 678 51 538 51 333 51 128 202-12 391-12z" unicode="Ĉ"></glyph><glyph d="M344 778C344 752 366 731 391 731 417 731 437 752 437 778 437 804 417 825 391 825 366 825 344 804 344 778M391-12C512-12 592 44 648 120l-71 39C539 102 470 62 391 62 248 62 137 175 137 333 137 492 248 604 391 604 470 604 539 563 577 507l70 39C594 621 512 678 391 678 202 678 51 538 51 333 51 128 202-12 391-12z" unicode="Ċ"></glyph><glyph d="M539 0l100 0-259 343 244 324-101 0-197-267-198 267-101 0 245-325-260-342 101 0 213 284z" unicode="Χ"></glyph><glyph d="M78 0l228 0C513 0 648 143 648 333 648 522 513 667 306 667l-228 0M161 74l0 519 145 0C471 593 562 477 562 333 562 190 468 74 306 74z" unicode="D"></glyph><glyph d="M316 723l72 0 95 144-51 0-80-106-83 106-51 0M78 0l228 0C513 0 648 143 648 333 648 522 513 667 306 667l-228 0M161 74l0 519 145 0C471 593 562 477 562 333 562 190 468 74 306 74z" unicode="Ď"></glyph><glyph d="M334 667l-228 0 0-306-96 0 0-63 96 0 0-298 228 0C541 0 676 143 676 333 676 522 541 667 334 667M334 74l-145 0 0 224 170 0 0 63-170 0 0 232 145 0C499 593 590 477 590 333 590 190 496 74 334 74z" unicode="Đ"></glyph><glyph d="M78 0l437 0 0 74-354 0 0 230 347 0 0 74-347 0 0 215 354 0 0 74-437 0z" unicode="E"></glyph><glyph d="M328 723l169 144-78 0-148-144M78 0l437 0 0 74-354 0 0 230 347 0 0 74-347 0 0 215 354 0 0 74-437 0z" unicode="É"></glyph><glyph d="M302 717C374 717 437 751 477 805l-37 32C409 792 360 765 302 765 243 765 195 793 163 837l-37-32C167 751 231 717 302 717M78 0l437 0 0 74-354 0 0 230 347 0 0 74-347 0 0 215 354 0 0 74-437 0z" unicode="Ĕ"></glyph><glyph d="M266 723l72 0 95 144-51 0-80-106-83 106-51 0M78 0l437 0 0 74-354 0 0 230 347 0 0 74-347 0 0 215 354 0 0 74-437 0z" unicode="Ě"></glyph><glyph d="M385 723l51 0-98 144-72 0-95-144 51 0 80 106M78 0l437 0 0 74-354 0 0 230 347 0 0 74-347 0 0 215 354 0 0 74-437 0z" unicode="Ê"></glyph><glyph d="M199 733C225 733 245 754 245 780 245 805 225 826 199 826 174 826 153 805 153 780 153 754 174 733 199 733M406 733C431 733 452 754 452 780 452 805 431 826 406 826 380 826 359 805 359 780 359 754 380 733 406 733M78 0l437 0 0 74-354 0 0 230 347 0 0 74-347 0 0 215 354 0 0 74-437 0z" unicode="Ë"></glyph><glyph d="M255 778C255 752 277 731 302 731 328 731 348 752 348 778 348 804 328 825 302 825 277 825 255 804 255 778M78 0l437 0 0 74-354 0 0 230 347 0 0 74-347 0 0 215 354 0 0 74-437 0z" unicode="Ė"></glyph><glyph d="M273 723l57 0-148 144-78 0M78 0l437 0 0 74-354 0 0 230 347 0 0 74-347 0 0 215 354 0 0 74-437 0z" unicode="È"></glyph><glyph d="M148 739l307 0 0 48-307 0M78 0l437 0 0 74-354 0 0 230 347 0 0 74-347 0 0 215 354 0 0 74-437 0z" unicode="Ē"></glyph><glyph d="M547 667l0-527-384 527-85 0 0-667 83 0 0 538 386-534C542-72 491-122 413-122 355-122 316-91 288-56l-44-63C290-173 348-196 418-196 537-196 630-130 630 15l0 652z" unicode="Ŋ"></glyph><glyph d="M515 593l0 74-437 0 0-667 374 0C394-26 349-66 349-111 349-161 397-186 447-186 474-186 499-179 515-169l-20 45C485-130 473-133 463-133 439-133 421-118 421-94 421-56 459-24 515 0l0 74-354 0 0 230 347 0 0 74-347 0 0 215z" unicode="Ę"></glyph><glyph d="M78 0l437 0 0 74-354 0 0 230 347 0 0 74-347 0 0 215 354 0 0 74-437 0z" unicode="Ε"></glyph><glyph d="M-37 574l38 0 57 200-76 0M78 0l437 0 0 74-354 0 0 230 347 0 0 74-347 0 0 215 354 0 0 74-437 0z" unicode="Έ"></glyph><glyph d="M551 0l83 0 0 667-83 0 0-287-390 0 0 287-83 0 0-667 83 0 0 306 390 0z" unicode="Η"></glyph><glyph d="M-18 574l38 0 57 200-76 0M570 0l83 0 0 667-83 0 0-287-390 0 0 287-83 0 0-667 83 0 0 306 390 0z" unicode="Ή"></glyph><glyph d="M334 667l-228 0 0-306-96 0 0-63 96 0 0-298 228 0C541 0 676 143 676 333 676 522 541 667 334 667M334 74l-145 0 0 224 170 0 0 63-170 0 0 232 145 0C499 593 590 477 590 333 590 190 496 74 334 74z" unicode="Ð"></glyph><glyph d="M415 62C301 62 208 131 174 237l302 0 0 52-315 0C159 303 158 318 158 333 158 349 159 364 161 379l315 0 0 52-302 0C209 537 302 604 415 604 491 604 561 563 599 507l70 39C615 621 534 678 415 678 256 678 124 581 85 431l-54 0 0-52 44 0C73 364 72 349 72 333 72 318 73 303 75 289l-44 0 0-52 53 0C123 86 255-12 415-12 534-12 613 44 669 120l-70 39C561 102 491 62 415 62z" unicode="€"></glyph><glyph d="M78 0l83 0 0 304 347 0 0 74-347 0 0 215 354 0 0 74-437 0z" unicode="F"></glyph><glyph d="M51 333C51 126 204-13 394-13 503-13 594 33 656 102l0 241-312 0 0-74 229 0 0-136C540 100 474 61 394 61 248 61 137 175 137 333 137 492 248 604 394 604 474 604 545 566 587 512l66 41C594 626 512 678 394 678 204 678 51 540 51 333z" unicode="G"></glyph><glyph d="M78 0l83 0 0 593 354 0 0 74-437 0z" unicode="Γ"></glyph><glyph d="M393 717C465 717 528 751 568 805l-37 32C500 792 451 765 393 765 334 765 286 793 254 837l-37-32C258 751 322 717 393 717M51 333C51 126 204-13 394-13 503-13 594 33 656 102l0 241-312 0 0-74 229 0 0-136C540 100 474 61 394 61 248 61 137 175 137 333 137 492 248 604 394 604 474 604 545 566 587 512l66 41C594 626 512 678 394 678 204 678 51 540 51 333z" unicode="Ğ"></glyph><glyph d="M476 723l51 0-98 144-72 0-95-144 51 0 80 106M51 333C51 126 204-13 394-13 503-13 594 33 656 102l0 241-312 0 0-74 229 0 0-136C540 100 474 61 394 61 248 61 137 175 137 333 137 492 248 604 394 604 474 604 545 566 587 512l66 41C594 626 512 678 394 678 204 678 51 540 51 333z" unicode="Ĝ"></glyph><glyph d="M51 333C51 126 204-13 394-13 503-13 594 33 656 102l0 241-312 0 0-74 229 0 0-136C540 100 474 61 394 61 248 61 137 175 137 333 137 492 248 604 394 604 474 604 545 566 587 512l66 41C594 626 512 678 394 678 204 678 51 540 51 333M347-129C347-155 369-176 394-176 420-176 440-155 440-129 440-103 420-82 394-82 369-82 347-103 347-129z" unicode="Ġ"></glyph><glyph d="M551 0l83 0 0 667-83 0 0-287-390 0 0 287-83 0 0-667 83 0 0 306 390 0z" unicode="H"></glyph><glyph d="M723 546l-79 0 0 121-83 0 0-121-390 0 0 121-83 0 0-121-78 0 0-48 78 0 0-498 83 0 0 306 390 0 0-306 83 0 0 498 79 0M561 380l-390 0 0 118 390 0z" unicode="Ħ"></glyph><glyph d="M439 723l51 0-98 144-72 0-95-144 51 0 80 106M551 0l83 0 0 667-83 0 0-287-390 0 0 287-83 0 0-667 83 0 0 306 390 0z" unicode="Ĥ"></glyph><glyph d="M78 0l83 0 0 667-83 0z" unicode="I"></glyph><glyph d="M78 0l83 0 0 667-83 0M250 65C296 11 353-12 424-12 543-12 636 56 636 201l0 466-83 0 0-465C553 119 501 62 419 62 361 62 322 93 293 128z" unicode="Ĳ"></glyph><glyph d="M146 723l169 144-78 0-148-144M78 0l83 0 0 667-83 0z" unicode="Í"></glyph><glyph d="M120 717C192 717 255 751 295 805l-37 32C227 792 178 765 120 765 61 765 13 793-19 837l-37-32C-15 751 49 717 120 717M78 0l83 0 0 667-83 0z" unicode="Ĭ"></glyph><glyph d="M203 723l51 0-98 144-72 0-95-144 51 0 80 106M78 0l83 0 0 667-83 0z" unicode="Î"></glyph><glyph d="M16 733C42 733 62 754 62 780 62 805 42 826 16 826-9 826-30 805-30 780-30 754-9 733 16 733M223 733C248 733 269 754 269 780 269 805 248 826 223 826 197 826 176 805 176 780 176 754 197 733 223 733M78 0l83 0 0 667-83 0z" unicode="Ï"></glyph><glyph d="M73 778C73 752 95 731 120 731 146 731 166 752 166 778 166 804 146 825 120 825 95 825 73 804 73 778M78 0l83 0 0 667-83 0z" unicode="İ"></glyph><glyph d="M91 723l57 0-148 144-78 0M78 0l83 0 0 667-83 0z" unicode="Ì"></glyph><glyph d="M-34 739l307 0 0 48-307 0M78 0l83 0 0 667-83 0z" unicode="Ī"></glyph><glyph d="M109-133C85-133 67-118 67-94 67-56 105-24 161 0l0 667-83 0 0-667 20 0C40-26-5-66-5-111-5-161 43-186 93-186 120-186 145-179 161-169l-20 45C131-130 119-133 109-133z" unicode="Į"></glyph><glyph d="M78 0l83 0 0 667-83 0z" unicode="Ι"></glyph><glyph d="M16 733C42 733 62 754 62 780 62 805 42 826 16 826-9 826-30 805-30 780-30 754-9 733 16 733M223 733C248 733 269 754 269 780 269 805 248 826 223 826 197 826 176 805 176 780 176 754 197 733 223 733M78 0l83 0 0 667-83 0z" unicode="Ϊ"></glyph><glyph d="M-18 574l38 0 57 200-76 0M97 0l83 0 0 667-83 0z" unicode="Ί"></glyph><glyph d="M104 774C121 749 140 721 180 721 243 721 277 777 277 855l-45 0C232 795 211 769 184 769 162 769 150 788 136 808 119 833 101 861 61 861-2 861-36 805-36 727l45 0C9 787 30 813 57 813 79 813 91 794 104 774M78 0l83 0 0 667-83 0z" unicode="Ĩ"></glyph><glyph d="M11 65C57 11 114-12 185-12 304-12 397 56 397 201l0 466-83 0 0-465C314 119 262 62 180 62 122 62 83 93 54 128z" unicode="J"></glyph><glyph d="M440 740l51 0-98 144-72 0-95-144 51 0 80 106M11 65C57 11 114-12 185-12 304-12 397 56 397 201l0 466-83 0 0-465C314 119 262 62 180 62 122 62 83 93 54 128z" unicode="Ĵ"></glyph><glyph d="M481 0l103 0-302 350 278 317-104 0-295-345 0 345-83 0 0-667 83 0 0 224 67 76z" unicode="K"></glyph><glyph d="M481 0l103 0-302 350 278 317-104 0-295-345 0 345-83 0 0-667 83 0 0 224 67 76z" unicode="Κ"></glyph><glyph d="M78 0l393 0 0 74-310 0 0 593-83 0z" unicode="L"></glyph><glyph d="M301 723l169 144-78 0-148-144M78 0l393 0 0 74-310 0 0 593-83 0z" unicode="Ĺ"></glyph><glyph d="M554 0l95 0-269 667-103 0-268-667 95 0 225 581z" unicode="Λ"></glyph><glyph d="M283 479C323 508 354 559 354 613 354 656 329 680 301 680 275 680 255 659 255 633 255 608 273 589 297 589 301 589 307 590 308 591 305 562 280 525 251 505M78 0l393 0 0 74-310 0 0 593-83 0z" unicode="Ľ"></glyph><glyph d="M78 0l393 0 0 74-310 0 0 593-83 0M369 287C399 287 424 312 424 341 424 371 399 396 369 396 339 396 314 371 314 341 314 312 339 287 369 287z" unicode="Ŀ"></glyph><glyph d="M180 74l0 245 97 56 0 72-97-56 0 276-83 0 0-324-87-50 0-72 87 50 0-271 393 0 0 74z" unicode="Ł"></glyph><glyph d="M648 0l83 0 0 667-119 0-208-508-207 508-119 0 0-667 83 0 0 555 226-555 34 0 227 555z" unicode="M"></glyph><glyph d="M648 0l83 0 0 667-119 0-208-508-207 508-119 0 0-667 83 0 0 555 226-555 34 0 227 555z" unicode="Μ"></glyph><glyph d="M550 0l80 0 0 667-83 0 0-527-384 527-85 0 0-667 83 0 0 538z" unicode="N"></glyph><glyph d="M380 723l169 144-78 0-148-144M550 0l80 0 0 667-83 0 0-527-384 527-85 0 0-667 83 0 0 538z" unicode="Ń"></glyph><glyph d="M318 723l72 0 95 144-51 0-80-106-83 106-51 0M550 0l80 0 0 667-83 0 0-527-384 527-85 0 0-667 83 0 0 538z" unicode="Ň"></glyph><glyph d="M338 774C355 749 374 721 414 721 477 721 511 777 511 855l-45 0C466 795 445 769 418 769 396 769 384 788 370 808 353 833 335 861 295 861 232 861 198 805 198 727l45 0C243 787 264 813 291 813 313 813 325 794 338 774M550 0l80 0 0 667-83 0 0-527-384 527-85 0 0-667 83 0 0 538z" unicode="Ñ"></glyph><glyph d="M550 0l80 0 0 667-83 0 0-527-384 527-85 0 0-667 83 0 0 538z" unicode="Ν"></glyph><glyph d="M51 333C51 136 184-12 382-12 579-12 713 136 713 333 713 530 579 678 382 678 184 678 51 530 51 333M627 333C627 178 531 62 382 62 232 62 137 178 137 333 137 489 232 604 382 604 531 604 627 489 627 333z" unicode="O"></glyph><glyph d="M613 0l438 0 0 74-355 0 0 230 348 0 0 74-348 0 0 215 355 0 0 74-438 0 0-121C564 633 469 677 375 677 181 677 51 530 51 333 51 136 181-12 375-12 469-12 564 33 613 120M613 443l0-220C574 117 487 62 384 62 232 62 137 177 137 333 137 489 232 603 384 603 487 603 574 550 613 443z" unicode="Œ"></glyph><glyph d="M407 723l169 144-78 0-148-144M51 333C51 136 184-12 382-12 579-12 713 136 713 333 713 530 579 678 382 678 184 678 51 530 51 333M627 333C627 178 531 62 382 62 232 62 137 178 137 333 137 489 232 604 382 604 531 604 627 489 627 333z" unicode="Ó"></glyph><glyph d="M381 717C453 717 516 751 556 805l-37 32C488 792 439 765 381 765 322 765 274 793 242 837l-37-32C246 751 310 717 381 717M51 333C51 136 184-12 382-12 579-12 713 136 713 333 713 530 579 678 382 678 184 678 51 530 51 333M627 333C627 178 531 62 382 62 232 62 137 178 137 333 137 489 232 604 382 604 531 604 627 489 627 333z" unicode="Ŏ"></glyph><glyph d="M464 723l51 0-98 144-72 0-95-144 51 0 80 106M51 333C51 136 184-12 382-12 579-12 713 136 713 333 713 530 579 678 382 678 184 678 51 530 51 333M627 333C627 178 531 62 382 62 232 62 137 178 137 333 137 489 232 604 382 604 531 604 627 489 627 333z" unicode="Ô"></glyph><glyph d="M278 733C304 733 324 754 324 780 324 805 304 826 278 826 253 826 232 805 232 780 232 754 253 733 278 733M485 733C510 733 531 754 531 780 531 805 510 826 485 826 459 826 438 805 438 780 438 754 459 733 485 733M51 333C51 136 184-12 382-12 579-12 713 136 713 333 713 530 579 678 382 678 184 678 51 530 51 333M627 333C627 178 531 62 382 62 232 62 137 178 137 333 137 489 232 604 382 604 531 604 627 489 627 333z" unicode="Ö"></glyph><glyph d="M353 723l57 0-148 144-78 0M51 333C51 136 184-12 382-12 579-12 713 136 713 333 713 530 579 678 382 678 184 678 51 530 51 333M627 333C627 178 531 62 382 62 232 62 137 178 137 333 137 489 232 604 382 604 531 604 627 489 627 333z" unicode="Ò"></glyph><glyph d="M719 664C719 704 696 727 669 727 645 727 627 707 627 683 627 660 643 642 666 642 670 642 676 643 677 644 674 619 656 588 632 568 573 636 486 678 382 678 184 678 51 530 51 333 51 136 184-12 382-12 579-12 713 136 713 333 713 411 692 482 654 538 691 566 719 613 719 664M382 62C232 62 137 178 137 333 137 489 232 604 382 604 531 604 627 489 627 333 627 178 531 62 382 62z" unicode="Ơ"></glyph><glyph d="M331 723l115 144-69 0-94-144M473 723l115 144-69 0-94-144M51 333C51 136 184-12 382-12 579-12 713 136 713 333 713 530 579 678 382 678 184 678 51 530 51 333M627 333C627 178 531 62 382 62 232 62 137 178 137 333 137 489 232 604 382 604 531 604 627 489 627 333z" unicode="Ő"></glyph><glyph d="M227 739l307 0 0 48-307 0M51 333C51 136 184-12 382-12 579-12 713 136 713 333 713 530 579 678 382 678 184 678 51 530 51 333M627 333C627 178 531 62 382 62 232 62 137 178 137 333 137 489 232 604 382 604 531 604 627 489 627 333z" unicode="Ō"></glyph><glyph d="M17 574l38 0 57 200-76 0M204 74l-135 0 0-74 240 0 0 74C222 96 137 187 137 334 137 481 223 603 382 603 541 603 627 481 627 334 627 187 543 96 456 74l0-74 240 0 0 74-134 0C649 127 713 217 713 348 713 540 580 678 382 678 185 678 51 540 51 348 51 217 116 127 204 74z" unicode="Ώ"></glyph><glyph d="M51 333C51 136 184-12 382-12 579-12 713 136 713 333 713 530 579 678 382 678 184 678 51 530 51 333M627 333C627 178 531 62 382 62 232 62 137 178 137 333 137 489 232 604 382 604 531 604 627 489 627 333z" unicode="Ο"></glyph><glyph d="M6 574l38 0 57 200-76 0M40 333C40 136 174-12 371-12 568-12 703 136 703 333 703 530 568 678 371 678 174 678 40 530 40 333M617 333C617 178 520 62 371 62 221 62 126 178 126 333 126 489 221 604 371 604 520 604 617 489 617 333z" unicode="Ό"></glyph><glyph d="M594 605l42 62-66 0-21-31C501 663 445 678 382 678 184 678 51 530 51 333 51 223 93 128 165 65l-44-65 66 0 22 33C258 4 317-12 382-12 579-12 713 136 713 333 713 446 669 543 594 605M137 333C137 489 232 604 382 604 429 604 470 592 506 572l-296-440C163 181 137 252 137 333M382 62C332 62 289 75 253 97l297 441C599 490 627 417 627 333 627 178 531 62 382 62z" unicode="Ø"></glyph><glyph d="M552 867l-78 0-148-144 57 0M594 605l42 62-66 0-21-31C501 663 445 678 382 678 184 678 51 530 51 333 51 223 93 128 165 65l-44-65 66 0 22 33C258 4 317-12 382-12 579-12 713 136 713 333 713 446 669 543 594 605M137 333C137 489 232 604 382 604 429 604 470 592 506 572l-296-440C163 181 137 252 137 333M382 62C332 62 289 75 253 97l297 441C599 490 627 417 627 333 627 178 531 62 382 62z" unicode="Ǿ"></glyph><glyph d="M365 774C382 749 401 721 441 721 504 721 538 777 538 855l-45 0C493 795 472 769 445 769 423 769 411 788 397 808 380 833 362 861 322 861 259 861 225 805 225 727l45 0C270 787 291 813 318 813 340 813 352 794 365 774M51 333C51 136 184-12 382-12 579-12 713 136 713 333 713 530 579 678 382 678 184 678 51 530 51 333M627 333C627 178 531 62 382 62 232 62 137 178 137 333 137 489 232 604 382 604 531 604 627 489 627 333z" unicode="Õ"></glyph><glyph d="M78 0l83 0 0 265 185 0C478 265 555 357 555 466 555 575 480 667 346 667l-268 0M469 466C469 391 415 339 336 339l-175 0 0 254 175 0C415 593 469 541 469 466z" unicode="P"></glyph><glyph d="M755 333C755 483 637 588 444 601l0 66-83 0 0-66C168 588 51 482 51 333 51 183 168 78 361 65l0-65 83 0 0 65C637 78 755 182 755 333M137 333C137 440 219 515 361 526l0-386C219 151 137 227 137 333M444 140l0 386C585 515 669 440 669 333 669 227 585 151 444 140z" unicode="Φ"></glyph><glyph d="M551 0l83 0 0 667-556 0 0-667 83 0 0 593 390 0z" unicode="Π"></glyph><glyph d="M634 667l0-270C634 283 567 212 440 201l0 466-83 0 0-466C229 212 161 283 161 397l0 270-83 0 0-272C78 241 171 138 357 125l0-125 83 0 0 126C625 138 718 241 718 396l0 271z" unicode="Ψ"></glyph><glyph d="M713 333C713 530 579 678 382 678 184 678 51 530 51 333 51 136 184-12 382-12 451-12 512 6 563 38l64-69 58 50-63 68C680 148 713 235 713 333M382 62C232 62 137 178 137 333 137 489 232 604 382 604 531 604 627 489 627 333 627 259 605 194 566 147l-94 101-58-49 95-103C473 75 430 62 382 62z" unicode="Q"></glyph><glyph d="M464 0l98 0-180 272C473 280 555 346 555 466 555 589 468 667 346 667l-268 0 0-667 83 0 0 265 133 0M469 466C469 391 415 338 336 338l-175 0 0 255 175 0C415 593 469 541 469 466z" unicode="R"></glyph><glyph d="M464 0l98 0-180 272C473 280 555 346 555 466 555 589 468 667 346 667l-268 0 0-667 83 0 0 265 133 0M469 466C469 391 415 338 336 338l-175 0 0 255 175 0C415 593 469 541 469 466M758-184l0 257C797 19 855-12 921-12 1048-12 1136 86 1136 242 1136 399 1048 495 921 495 853 495 793 460 758 411l0 72-75 0 0-667M1057 242C1057 135 999 55 902 55 843 55 784 91 758 133l0 218C784 393 843 428 902 428 999 428 1057 349 1057 242z" unicode=""></glyph><glyph d="M332 723l169 144-78 0-148-144M464 0l98 0-180 272C473 280 555 346 555 466 555 589 468 667 346 667l-268 0 0-667 83 0 0 265 133 0M469 466C469 391 415 338 336 338l-175 0 0 255 175 0C415 593 469 541 469 466z" unicode="Ŕ"></glyph><glyph d="M270 723l72 0 95 144-51 0-80-106-83 106-51 0M464 0l98 0-180 272C473 280 555 346 555 466 555 589 468 667 346 667l-268 0 0-667 83 0 0 265 133 0M469 466C469 391 415 338 336 338l-175 0 0 255 175 0C415 593 469 541 469 466z" unicode="Ř"></glyph><glyph d="M78 0l83 0 0 265 185 0C478 265 555 357 555 466 555 575 480 667 346 667l-268 0M469 466C469 391 415 339 336 339l-175 0 0 254 175 0C415 593 469 541 469 466z" unicode="Ρ"></glyph><glyph d="M38 94C93 32 178-12 294-12 474-12 540 87 540 184 540 324 416 358 307 387 222 410 145 430 145 497 145 560 202 603 282 603 355 603 425 578 475 523l50 61C469 643 390 677 288 677 157 677 59 602 59 492 59 361 178 331 285 303 373 279 454 257 454 177 454 126 416 62 297 62 203 62 131 108 87 157z" unicode="S"></glyph><glyph d="M314 723l169 144-78 0-148-144M38 94C93 32 178-12 294-12 474-12 540 87 540 184 540 324 416 358 307 387 222 410 145 430 145 497 145 560 202 603 282 603 355 603 425 578 475 523l50 61C469 643 390 677 288 677 157 677 59 602 59 492 59 361 178 331 285 303 373 279 454 257 454 177 454 126 416 62 297 62 203 62 131 108 87 157z" unicode="Ś"></glyph><glyph d="M252 723l72 0 95 144-51 0-80-106-83 106-51 0M38 94C93 32 178-12 294-12 474-12 540 87 540 184 540 324 416 358 307 387 222 410 145 430 145 497 145 560 202 603 282 603 355 603 425 578 475 523l50 61C469 643 390 677 288 677 157 677 59 602 59 492 59 361 178 331 285 303 373 279 454 257 454 177 454 126 416 62 297 62 203 62 131 108 87 157z" unicode="Š"></glyph><glyph d="M371 723l51 0-98 144-72 0-95-144 51 0 80 106M38 94C93 32 178-12 294-12 474-12 540 87 540 184 540 324 416 358 307 387 222 410 145 430 145 497 145 560 202 603 282 603 355 603 425 578 475 523l50 61C469 643 390 677 288 677 157 677 59 602 59 492 59 361 178 331 285 303 373 279 454 257 454 177 454 126 416 62 297 62 203 62 131 108 87 157z" unicode="Ŝ"></glyph><glyph d="M154 74l232 269-229 250 364 0 0 74-466 0 0-74 230-251-231-268 0-74 467 0 0 74z" unicode="Σ"></glyph><glyph d="M243 0l83 0 0 593 212 0 0 74-506 0 0-74 211 0z" unicode="T"></glyph><glyph d="M243 0l83 0 0 593 212 0 0 74-506 0 0-74 211 0z" unicode="Τ"></glyph><glyph d="M538 593l0 74-506 0 0-74 211 0 0-251-150 0 0-48 150 0 0-294 83 0 0 294 151 0 0 48-151 0 0 251z" unicode="Ŧ"></glyph><glyph d="M249 723l72 0 95 144-51 0-80-106-83 106-51 0M243 0l83 0 0 593 212 0 0 74-506 0 0-74 211 0z" unicode="Ť"></glyph><glyph d="M51 333C51 136 184-12 382-12 579-12 713 136 713 333 713 530 579 678 382 678 184 678 51 530 51 333M627 333C627 178 531 62 382 62 232 62 137 178 137 333 137 489 232 604 382 604 531 604 627 489 627 333M196 304l373 0 0 74-373 0z" unicode="Θ"></glyph><glyph d="M78 0l83 0 0 146 185 0C478 146 555 237 555 346 555 455 480 548 346 548l-185 0 0 119-83 0M469 346C469 271 415 220 336 220l-175 0 0 254 175 0C415 474 469 421 469 346z" unicode="Þ"></glyph><glyph d="M78 259C78 95 169-12 350-12 531-12 622 94 622 260l0 407-83 0 0-406C539 139 473 62 350 62 227 62 161 139 161 261l0 406-83 0z" unicode="U"></glyph><glyph d="M376 723l169 144-78 0-148-144M78 259C78 95 169-12 350-12 531-12 622 94 622 260l0 407-83 0 0-406C539 139 473 62 350 62 227 62 161 139 161 261l0 406-83 0z" unicode="Ú"></glyph><glyph d="M350 717C422 717 485 751 525 805l-37 32C457 792 408 765 350 765 291 765 243 793 211 837l-37-32C215 751 279 717 350 717M78 259C78 95 169-12 350-12 531-12 622 94 622 260l0 407-83 0 0-406C539 139 473 62 350 62 227 62 161 139 161 261l0 406-83 0z" unicode="Ŭ"></glyph><glyph d="M433 723l51 0-98 144-72 0-95-144 51 0 80 106M78 259C78 95 169-12 350-12 531-12 622 94 622 260l0 407-83 0 0-406C539 139 473 62 350 62 227 62 161 139 161 261l0 406-83 0z" unicode="Û"></glyph><glyph d="M247 733C273 733 293 754 293 780 293 805 273 826 247 826 222 826 201 805 201 780 201 754 222 733 247 733M454 733C479 733 500 754 500 780 500 805 479 826 454 826 428 826 407 805 407 780 407 754 428 733 454 733M78 259C78 95 169-12 350-12 531-12 622 94 622 260l0 407-83 0 0-406C539 139 473 62 350 62 227 62 161 139 161 261l0 406-83 0z" unicode="Ü"></glyph><glyph d="M322 723l57 0-148 144-78 0M78 259C78 95 169-12 350-12 531-12 622 94 622 260l0 407-83 0 0-406C539 139 473 62 350 62 227 62 161 139 161 261l0 406-83 0z" unicode="Ù"></glyph><glyph d="M738 728C738 768 714 791 688 791 663 791 645 771 645 748 645 724 662 707 684 707 688 707 694 708 695 708 693 671 660 633 622 614l0 53-83 0 0-406C539 139 473 62 350 62 227 62 161 139 161 261l0 406-83 0 0-408C78 95 169-12 350-12 531-12 622 94 622 260l0 315C694 603 738 665 738 728z" unicode="Ư"></glyph><glyph d="M300 723l115 144-69 0-94-144M442 723l115 144-69 0-94-144M78 259C78 95 169-12 350-12 531-12 622 94 622 260l0 407-83 0 0-406C539 139 473 62 350 62 227 62 161 139 161 261l0 406-83 0z" unicode="Ű"></glyph><glyph d="M196 739l307 0 0 48-307 0M78 259C78 95 169-12 350-12 531-12 622 94 622 260l0 407-83 0 0-406C539 139 473 62 350 62 227 62 161 139 161 261l0 406-83 0z" unicode="Ū"></glyph><glyph d="M78 259C78 95 169-12 350-12l13 0C315-36 280-71 280-111 280-161 328-186 378-186 406-186 431-179 446-169l-19 45C416-130 405-133 394-133 370-133 352-118 352-94 352-55 394-19 464 5 568 42 622 130 622 260l0 407-83 0 0-406C539 139 473 62 350 62 227 62 161 139 161 261l0 406-83 0z" unicode="Ų"></glyph><glyph d="M272 0l83 0 0 282 262 385-97 0-207-310-207 310-97 0 263-385z" unicode="Υ"></glyph><glyph d="M210 733C236 733 256 754 256 780 256 805 236 826 210 826 185 826 164 805 164 780 164 754 185 733 210 733M417 733C442 733 463 754 463 780 463 805 442 826 417 826 391 826 370 805 370 780 370 754 391 733 417 733M272 0l83 0 0 282 262 385-97 0-207-310-207 310-97 0 263-385z" unicode="Ϋ"></glyph><glyph d="M-18 574l38 0 57 200-76 0M326 0l83 0 0 282 262 385-97 0-207-310-207 310-97 0 263-385z" unicode="Ύ"></glyph><glyph d="M253 808C253 754 297 710 351 710 405 710 449 754 449 808 449 862 405 907 351 907 297 907 253 862 253 808M409 808C409 776 384 749 351 749 319 749 293 776 293 808 293 841 319 867 351 867 384 867 409 841 409 808M78 259C78 95 169-12 350-12 531-12 622 94 622 260l0 407-83 0 0-406C539 139 473 62 350 62 227 62 161 139 161 261l0 406-83 0z" unicode="Ů"></glyph><glyph d="M334 774C351 749 370 721 410 721 473 721 507 777 507 855l-45 0C462 795 441 769 414 769 392 769 380 788 366 808 349 833 331 861 291 861 228 861 194 805 194 727l45 0C239 787 260 813 287 813 309 813 321 794 334 774M78 259C78 95 169-12 350-12 531-12 622 94 622 260l0 407-83 0 0-406C539 139 473 62 350 62 227 62 161 139 161 261l0 406-83 0z" unicode="Ũ"></glyph><glyph d="M277 0l103 0 269 667-95 0-225-576-225 576-95 0z" unicode="V"></glyph><glyph d="M588 0l90 0 190 667-92 0-147-556-153 556-69 0-153-556-148 556-92 0 190-667 90 0 147 538z" unicode="W"></glyph><glyph d="M467 723l169 144-78 0-148-144M588 0l90 0 190 667-92 0-147-556-153 556-69 0-153-556-148 556-92 0 190-667 90 0 147 538z" unicode="Ẃ"></glyph><glyph d="M524 723l51 0-98 144-72 0-95-144 51 0 80 106M588 0l90 0 190 667-92 0-147-556-153 556-69 0-153-556-148 556-92 0 190-667 90 0 147 538z" unicode="Ŵ"></glyph><glyph d="M338 733C364 733 384 754 384 780 384 805 364 826 338 826 313 826 292 805 292 780 292 754 313 733 338 733M545 733C570 733 591 754 591 780 591 805 570 826 545 826 519 826 498 805 498 780 498 754 519 733 545 733M588 0l90 0 190 667-92 0-147-556-153 556-69 0-153-556-148 556-92 0 190-667 90 0 147 538z" unicode="Ẅ"></glyph><glyph d="M412 723l57 0-148 144-78 0M588 0l90 0 190 667-92 0-147-556-153 556-69 0-153-556-148 556-92 0 190-667 90 0 147 538z" unicode="Ẁ"></glyph><glyph d="M539 0l100 0-259 343 244 324-101 0-197-267-198 267-101 0 245-325-260-342 101 0 213 284z" unicode="X"></glyph><glyph d="M55 593l505 0 0 74-505 0M62 304l492 0 0 74-492 0M54 0l506 0 0 74-506 0z" unicode="Ξ"></glyph><glyph d="M272 0l83 0 0 282 262 385-97 0-207-310-207 310-97 0 263-385z" unicode="Y"></glyph><glyph d="M339 723l169 144-78 0-148-144M272 0l83 0 0 282 262 385-97 0-207-310-207 310-97 0 263-385z" unicode="Ý"></glyph><glyph d="M396 723l51 0-98 144-72 0-95-144 51 0 80 106M272 0l83 0 0 282 262 385-97 0-207-310-207 310-97 0 263-385z" unicode="Ŷ"></glyph><glyph d="M210 733C236 733 256 754 256 780 256 805 236 826 210 826 185 826 164 805 164 780 164 754 185 733 210 733M417 733C442 733 463 754 463 780 463 805 442 826 417 826 391 826 370 805 370 780 370 754 391 733 417 733M272 0l83 0 0 282 262 385-97 0-207-310-207 310-97 0 263-385z" unicode="Ÿ"></glyph><glyph d="M285 723l57 0-148 144-78 0M272 0l83 0 0 282 262 385-97 0-207-310-207 310-97 0 263-385z" unicode="Ỳ"></glyph><glyph d="M48 0l488 0 0 74-382 0 375 524 0 69-481 0 0-74 375 0-375-524z" unicode="Z"></glyph><glyph d="M319 723l169 144-78 0-148-144M48 0l488 0 0 74-382 0 375 524 0 69-481 0 0-74 375 0-375-524z" unicode="Ź"></glyph><glyph d="M257 723l72 0 95 144-51 0-80-106-83 106-51 0M48 0l488 0 0 74-382 0 375 524 0 69-481 0 0-74 375 0-375-524z" unicode="Ž"></glyph><glyph d="M246 778C246 752 268 731 293 731 319 731 339 752 339 778 339 804 319 825 293 825 268 825 246 804 246 778M48 0l488 0 0 74-382 0 375 524 0 69-481 0 0-74 375 0-375-524z" unicode="Ż"></glyph><glyph d="M48 0l488 0 0 74-382 0 375 524 0 69-481 0 0-74 375 0-375-524z" unicode="Ζ"></glyph><glyph d="M377 0l75 0 0 332C452 449 367 495 265 495 186 495 124 469 72 415l35-52C150 409 197 430 255 430 325 430 377 393 377 328l0-87C338 286 283 307 217 307 135 307 48 256 48 148 48 43 135-12 217-12 282-12 337 11 377 55M377 102C348 62 297 42 244 42 174 42 125 86 125 147 125 209 174 253 244 253 297 253 348 233 377 193z" unicode="a"></glyph><glyph d="M292 556l169 144-78 0-148-144M377 0l75 0 0 332C452 449 367 495 265 495 186 495 124 469 72 415l35-52C150 409 197 430 255 430 325 430 377 393 377 328l0-87C338 286 283 307 217 307 135 307 48 256 48 148 48 43 135-12 217-12 282-12 337 11 377 55M377 102C348 62 297 42 244 42 174 42 125 86 125 147 125 209 174 253 244 253 297 253 348 233 377 193z" unicode="á"></glyph><glyph d="M266 550C338 550 401 584 441 638l-37 32C373 625 324 598 266 598 207 598 159 626 127 670l-37-32C131 584 195 550 266 550M377 0l75 0 0 332C452 449 367 495 265 495 186 495 124 469 72 415l35-52C150 409 197 430 255 430 325 430 377 393 377 328l0-87C338 286 283 307 217 307 135 307 48 256 48 148 48 43 135-12 217-12 282-12 337 11 377 55M377 102C348 62 297 42 244 42 174 42 125 86 125 147 125 209 174 253 244 253 297 253 348 233 377 193z" unicode="ă"></glyph><glyph d="M349 556l51 0-98 144-72 0-95-144 51 0 80 106M377 0l75 0 0 332C452 449 367 495 265 495 186 495 124 469 72 415l35-52C150 409 197 430 255 430 325 430 377 393 377 328l0-87C338 286 283 307 217 307 135 307 48 256 48 148 48 43 135-12 217-12 282-12 337 11 377 55M377 102C348 62 297 42 244 42 174 42 125 86 125 147 125 209 174 253 244 253 297 253 348 233 377 193z" unicode="â"></glyph><glyph d="M57 556l169 144-78 0-148-144z" unicode="´"></glyph><glyph d="M163 566C189 566 209 587 209 613 209 638 189 659 163 659 138 659 117 638 117 613 117 587 138 566 163 566M370 566C395 566 416 587 416 613 416 638 395 659 370 659 344 659 323 638 323 613 323 587 344 566 370 566M377 0l75 0 0 332C452 449 367 495 265 495 186 495 124 469 72 415l35-52C150 409 197 430 255 430 325 430 377 393 377 328l0-87C338 286 283 307 217 307 135 307 48 256 48 148 48 43 135-12 217-12 282-12 337 11 377 55M377 102C348 62 297 42 244 42 174 42 125 86 125 147 125 209 174 253 244 253 297 253 348 233 377 193z" unicode="ä"></glyph><glyph d="M476 217l367 0 0 19C843 381 765 495 627 495 539 495 481 448 448 390 430 464 356 495 277 495 194 495 125 469 72 415l35-52C154 410 205 430 268 430 347 430 401 393 401 329l0-86C358 287 297 307 226 307 132 307 48 252 48 148 48 43 138-12 242-12 331-12 407 35 441 104 480 24 549-12 634-12 702-12 765 14 812 62l-36 51C740 73 689 52 637 52 541 52 483 126 476 217M769 272l-293 0C479 346 527 433 622 433 726 433 768 344 769 272M401 192l0-12C401 116 341 52 256 52 178 52 125 91 125 152 125 213 178 253 256 253 313 253 368 231 401 192z" unicode="æ"></glyph><glyph d="M467 556l169 144-78 0-148-144M476 217l367 0 0 19C843 381 765 495 627 495 539 495 481 448 448 390 430 464 356 495 277 495 194 495 125 469 72 415l35-52C154 410 205 430 268 430 347 430 401 393 401 329l0-86C358 287 297 307 226 307 132 307 48 252 48 148 48 43 138-12 242-12 331-12 407 35 441 104 480 24 549-12 634-12 702-12 765 14 812 62l-36 51C740 73 689 52 637 52 541 52 483 126 476 217M769 272l-293 0C479 346 527 433 622 433 726 433 768 344 769 272M401 192l0-12C401 116 341 52 256 52 178 52 125 91 125 152 125 213 178 253 256 253 313 253 368 231 401 192z" unicode="ǽ"></glyph><glyph d="M237 556l57 0-148 144-78 0M377 0l75 0 0 332C452 449 367 495 265 495 186 495 124 469 72 415l35-52C150 409 197 430 255 430 325 430 377 393 377 328l0-87C338 286 283 307 217 307 135 307 48 256 48 148 48 43 135-12 217-12 282-12 337 11 377 55M377 102C348 62 297 42 244 42 174 42 125 86 125 147 125 209 174 253 244 253 297 253 348 233 377 193z" unicode="à"></glyph><glyph d="M571-8l-5 65C561 56 553 55 546 55 516 55 500 78 500 113l0 370-76 0 0-73C386 463 327 495 262 495 135 495 47 395 47 241 47 84 136-12 262-12 333-12 395 27 428 77 436 21 470-12 532-12 546-12 561-10 571-8M425 131C398 89 340 55 280 55 183 55 125 134 125 241 125 348 183 428 280 428 340 428 398 392 425 350z" unicode="α"></glyph><glyph d="M270 574l38 0 57 200-76 0M571-8l-5 65C561 56 553 55 546 55 516 55 500 78 500 113l0 370-76 0 0-73C386 463 327 495 262 495 135 495 47 395 47 241 47 84 136-12 262-12 333-12 395 27 428 77 436 21 470-12 532-12 546-12 561-10 571-8M425 131C398 89 340 55 280 55 183 55 125 134 125 241 125 348 183 428 280 428 340 428 398 392 425 350z" unicode="ά"></glyph><glyph d="M112 572l307 0 0 48-307 0M377 0l75 0 0 332C452 449 367 495 265 495 186 495 124 469 72 415l35-52C150 409 197 430 255 430 325 430 377 393 377 328l0-87C338 286 283 307 217 307 135 307 48 256 48 148 48 43 135-12 217-12 282-12 337 11 377 55M377 102C348 62 297 42 244 42 174 42 125 86 125 147 125 209 174 253 244 253 297 253 348 233 377 193z" unicode="ā"></glyph><glyph d="M483 126C523 182 552 245 574 298l-65 28C498 289 474 229 438 174 411 202 386 232 358 263 337 288 308 322 282 358 366 402 451 446 451 546 451 630 387 677 300 677 206 677 132 611 132 522 132 476 153 424 184 373 107 331 36 278 36 174 36 50 129-12 244-12 325-12 387 22 436 70 463 43 489 18 509 0l104 0C565 45 523 85 483 126M210 521C210 578 252 618 303 618 348 618 382 592 382 543 382 477 321 442 250 406 227 446 210 486 210 521M251 50C181 50 117 96 117 179 117 248 161 289 216 323 242 285 272 249 299 217 318 194 353 156 391 116 353 78 307 50 251 50z" unicode="&amp;amp;"></glyph><glyph d="M452 0l0 332C452 449 367 495 265 495 186 495 124 469 72 415l35-52C150 409 197 430 255 430 325 430 377 393 377 328l0-87C338 286 283 307 217 307 135 307 48 256 48 148 48 43 135-12 217-12 282-12 337 11 377 55l0-55 12 0C331-26 286-66 286-111 286-161 334-186 384-186 411-186 436-179 452-169l-20 45C422-130 410-133 400-133 376-133 358-118 358-94 358-56 396-24 452 0M377 102C348 62 297 42 244 42 174 42 125 86 125 147 125 209 174 253 244 253 297 253 348 233 377 193z" unicode="ą"></glyph><glyph d="M29 458l0-58C60 383 103 373 139 373 196 373 227 388 257 403 285 417 312 431 359 431 395 431 437 421 470 398l0 59C438 474 396 484 359 484 301 484 271 468 241 453 213 439 186 425 139 425 103 425 62 436 29 458M29 270l0-59C60 193 103 184 139 184 196 184 227 200 257 215 285 229 312 243 359 243 395 243 437 232 470 209l0 59C438 285 396 295 359 295 301 295 271 279 241 264 213 250 186 237 139 237 103 237 62 247 29 270z" unicode="≈"></glyph><glyph d="M168 641C168 587 212 543 266 543 320 543 364 587 364 641 364 695 320 740 266 740 212 740 168 695 168 641M324 641C324 609 299 582 266 582 234 582 208 609 208 641 208 674 234 700 266 700 299 700 324 674 324 641M377 0l75 0 0 332C452 449 367 495 265 495 186 495 124 469 72 415l35-52C150 409 197 430 255 430 325 430 377 393 377 328l0-87C338 286 283 307 217 307 135 307 48 256 48 148 48 43 135-12 217-12 282-12 337 11 377 55M377 102C348 62 297 42 244 42 174 42 125 86 125 147 125 209 174 253 244 253 297 253 348 233 377 193z" unicode="å"></glyph><glyph d="M366 286l0 269-150 0 0-269-129 12 204-281 205 281z" unicode="↓"></glyph><glyph d="M269 211l269 0 0 150-269 0 12 129-281-204 281-205z" unicode="←"></glyph><glyph d="M303 81l281 205-281 204 12-129-268 0 0-150 268 0z" unicode="→"></glyph><glyph d="M216 286l0-269 150 0 0 269 129-12-204 281-205-281z" unicode="↑"></glyph><glyph d="M351 333l62 0-168 334-57 0-169-334 62 0 135 279z" unicode="^"></glyph><glyph d="M475 660l-56 7C409 553 386 475 337 475 303 475 290 511 276 553 257 606 236 666 165 666 67 666 38 550 27 429l56-7C94 533 116 613 165 613 199 613 212 577 227 536 246 484 267 423 337 423 437 423 464 540 475 660z" unicode="~"></glyph><glyph d="M147 389l46 0-6 115 96-63 23 40-102 52 102 52-23 39-96-62 6 115-46 0 5-115-96 62-22-39 102-52-102-52 22-40 96 63z" unicode="*"></glyph><glyph d="M35 244C35 67 170-70 352-70 426-70 498-47 560-7l-18 26C488-15 427-37 356-37 190-37 69 85 69 246 69 433 235 604 428 604 598 604 711 485 711 321 711 183 642 139 603 139 577 139 556 157 556 191 556 197 557 206 558 212l57 271-68 0-13-62C515 464 471 499 406 499 288 499 171 387 171 248 171 151 231 85 324 85 388 85 447 123 482 172l1-6C486 124 518 85 574 85 658 85 747 164 747 321 747 496 621 638 432 638 224 638 35 460 35 244M493 231C464 189 413 141 344 141 280 141 242 188 242 252 242 348 319 443 419 443 478 443 511 400 522 369z" unicode="@"></glyph><glyph d="M250 607C267 582 286 554 326 554 389 554 423 610 423 688l-45 0C378 628 357 602 330 602 308 602 296 621 282 641 265 666 247 694 207 694 144 694 110 638 110 560l45 0C155 620 176 646 203 646 225 646 237 627 250 607M377 0l75 0 0 332C452 449 367 495 265 495 186 495 124 469 72 415l35-52C150 409 197 430 255 430 325 430 377 393 377 328l0-87C338 286 283 307 217 307 135 307 48 256 48 148 48 43 135-12 217-12 282-12 337 11 377 55M377 102C348 62 297 42 244 42 174 42 125 86 125 147 125 209 174 253 244 253 297 253 348 233 377 193z" unicode="ã"></glyph><glyph d="M75 0l75 0 0 72C186 23 245-12 313-12 439-12 528 84 528 241 528 395 439 495 313 495 247 495 189 463 150 410l0 257-75 0M150 131l0 219C176 392 235 428 294 428 392 428 450 348 450 241 450 134 392 55 294 55 235 55 176 89 150 131z" unicode="b"></glyph><glyph d="M0 687l237-707 59 0-237 707z" unicode="\"></glyph><glyph d="M78-20l55 0 0 707-55 0z" unicode="|"></glyph><glyph d="M150-184l0 256C186 23 245-12 321-12 439-12 528 63 528 173 528 287 435 339 374 344 436 355 513 403 513 499 513 612 423 677 303 677 190 677 75 610 75 455l0-639M150 131l0 324C150 559 221 610 303 610 375 610 434 566 434 492 434 413 370 375 291 375l-33 0 0-67 35 0C379 308 450 269 450 184 450 106 396 55 299 55 235 55 178 89 150 131z" unicode="β"></glyph><glyph d="M182-190l61 0 0 55-61 0C146-135 116-101 116-55l0 211C116 198 103 230 70 244 103 258 116 290 116 332l0 211C116 590 146 623 182 623l61 0 0 55-61 0C119 678 57 626 57 543l0-205C57 301 40 269 5 269l0-50C40 219 57 187 57 150l0-206C57-138 119-190 182-190z" unicode="{"></glyph><glyph d="M17-135l0-55 61 0C142-190 203-138 203-56l0 206C203 187 220 219 255 219l0 50C220 269 203 301 203 338l0 205C203 626 142 678 78 678l-61 0 0-55 61 0C114 623 144 590 144 543l0-211C144 290 157 258 190 244 157 230 144 198 144 156l0-211C144-101 114-135 78-135z" unicode="}"></glyph><glyph d="M40-190l186 0 0 55-128 0 0 758 128 0 0 55-186 0z" unicode="["></glyph><glyph d="M17-190l186 0 0 868-186 0 0-55 128 0 0-758-128 0z" unicode="]"></glyph><glyph d="M176 550C248 550 311 584 351 638l-37 32C283 625 234 598 176 598 117 598 69 626 37 670l-37-32C41 584 105 550 176 550z" unicode="˘"></glyph><glyph d="M78 371l55 0 0 316-55 0M78-20l55 0 0 316-55 0z" unicode="¦"></glyph><glyph d="M180 135C239 135 288 184 288 242 288 301 239 350 180 350 121 350 72 301 72 242 72 184 121 135 180 135z" unicode="•"></glyph><glyph d="M47 242C47 98 144-12 288-12 376-12 428 24 465 72l-50 46C383 75 342 55 292 55 189 55 125 135 125 242 125 349 189 428 292 428 342 428 383 409 415 365l50 46C428 459 376 495 288 495 144 495 47 385 47 242z" unicode="c"></glyph><glyph d="M312 556l169 144-78 0-148-144M47 242C47 98 144-12 288-12 376-12 428 24 465 72l-50 46C383 75 342 55 292 55 189 55 125 135 125 242 125 349 189 428 292 428 342 428 383 409 415 365l50 46C428 459 376 495 288 495 144 495 47 385 47 242z" unicode="ć"></glyph><glyph d="M98 556l72 0 95 144-51 0-80-106-83 106-51 0z" unicode="ˇ"></glyph><glyph d="M250 556l72 0 95 144-51 0-80-106-83 106-51 0M47 242C47 98 144-12 288-12 376-12 428 24 465 72l-50 46C383 75 342 55 292 55 189 55 125 135 125 242 125 349 189 428 292 428 342 428 383 409 415 365l50 46C428 459 376 495 288 495 144 495 47 385 47 242z" unicode="č"></glyph><glyph d="M292 55C189 55 125 135 125 242 125 349 189 428 292 428 342 428 383 409 415 365l50 46C428 459 376 495 288 495 144 495 47 385 47 242 47 107 133 1 263-11l-23-62 33-19C282-82 297-75 311-75 336-75 348-89 348-108 348-137 319-152 287-152 260-152 231-143 207-123l-19-38C208-177 246-191 289-191 346-191 393-160 393-109 393-70 365-44 327-44 314-44 300-48 290-55l17 44C384-7 431 28 465 72l-50 46C383 75 342 55 292 55z" unicode="ç"></glyph><glyph d="M369 556l51 0-98 144-72 0-95-144 51 0 80 106M47 242C47 98 144-12 288-12 376-12 428 24 465 72l-50 46C383 75 342 55 292 55 189 55 125 135 125 242 125 349 189 428 292 428 342 428 383 409 415 365l50 46C428 459 376 495 288 495 144 495 47 385 47 242z" unicode="ĉ"></glyph><glyph d="M239 611C239 585 261 564 286 564 312 564 332 585 332 611 332 637 312 658 286 658 261 658 239 637 239 611M47 242C47 98 144-12 288-12 376-12 428 24 465 72l-50 46C383 75 342 55 292 55 189 55 125 135 125 242 125 349 189 428 292 428 342 428 383 409 415 365l50 46C428 459 376 495 288 495 144 495 47 385 47 242z" unicode="ċ"></glyph><glyph d="M0-161C20-177 58-191 101-191 158-191 205-160 205-109 205-70 177-44 139-44 126-44 112-48 102-55l26 66-45 0-31-84 33-19C94-82 109-75 123-75 148-75 160-89 160-108 160-137 131-152 99-152 72-152 43-143 19-123z" unicode="¸"></glyph><glyph d="M311 56l0 371C353 422 387 404 415 365l50 46C432 455 386 488 311 494l0 71-59 0 0-72C128 476 47 373 47 242 47 110 128 7 252-10l0-90 59 0 0 89C386-5 432 28 465 72l-50 46C387 80 353 61 311 56M125 242C125 334 173 406 252 423l0-363C173 77 125 150 125 242z" unicode="¢"></glyph><glyph d="M391-184l84 0-186 343 175 324-84 0-137-254-137 254-84 0 175-324-185-343 83 0 148 273z" unicode="χ"></glyph><glyph d="M214 556l51 0-98 144-72 0-95-144 51 0 80 106z" unicode="ˆ"></glyph><glyph d="M60 435C60 405 85 380 115 380 145 380 170 405 170 435 170 465 145 490 115 490 85 490 60 465 60 435M60 45C60 15 85-10 115-10 145-10 170 15 170 45 170 75 145 100 115 100 85 100 60 75 60 45z" unicode=":"></glyph><glyph d="M401 62l158 473C567 526 574 517 581 507l70 39C633 572 611 595 585 615l51 153-50 0-42-126C521 655 496 664 468 670l32 98-50 0-30-91C411 678 403 678 394 678 205 678 54 538 54 333 54 203 115 99 207 41l-47-141 50 0 40 118C274 7 300-1 328-6l-32-94 50 0 30 88 18 0C516-12 596 44 651 120l-70 39C544 104 478 64 401 62M140 333C140 492 251 604 394 604l1 0-161-485C176 167 140 243 140 333M519 567l-167-502C324 70 298 79 275 91l169 508C471 593 497 582 519 567z" unicode="₡"></glyph><glyph d="M94-127C140-94 176-37 176 24 176 72 146 100 113 100 83 100 60 75 60 46 60 16 80-5 108-5 113-5 120-4 122-3 118-36 89-75 57-96z" unicode=","></glyph><glyph d="M389-12C580-12 734 143 734 333 734 524 580 678 389 678 199 678 44 524 44 333 44 143 199-12 389-12M389 647C562 647 703 506 703 333 703 160 562 19 389 19 216 19 75 160 75 333 75 506 216 647 389 647M538 186l-26 25C486 176 439 153 391 153 301 153 220 229 220 334 220 442 301 514 391 514 438 514 486 492 512 457l25 24C502 522 453 547 391 547 276 547 183 456 183 334 183 212 276 120 391 120 453 120 502 144 538 186z" unicode="©"></glyph><glyph d="M538 333C538 389 521 440 491 480l78 78-46 46-77-77C407 555 357 572 299 572 240 572 191 555 152 526l-78 79-47-46 79-79C76 440 60 389 60 333 60 278 76 227 105 186l-77-77 47-45 76 76C189 110 240 93 299 93 358 93 408 110 446 139l77-75 46 45-77 77C521 226 538 278 538 333M299 161C195 161 137 243 137 333 137 422 195 503 299 503 404 503 461 422 461 333 461 243 404 161 299 161z" unicode="¤"></glyph><glyph d="M425 0l75 0 0 667-75 0 0-257C386 463 327 495 262 495 135 495 47 395 47 241 47 84 136-12 262-12 330-12 389 23 425 72M425 131C398 89 340 55 280 55 183 55 125 134 125 241 125 348 183 428 280 428 340 428 398 392 425 350z" unicode="d"></glyph><glyph d="M151 535l89-4 0 43-89-3 4 106-48 0 5-106-89 3 0-43 89 4-5-208 48 0z" unicode="†"></glyph><glyph d="M240 531l0 43-89-3 4 106-48 0 4-106-88 3 0-43 88 4 0-213-88 4 0-43 88 3-4-106 48 0-4 106 89-3 0 43-89-4 0 213z" unicode="‡"></glyph><glyph d="M577 479C616 507 648 558 648 613 648 656 623 679 595 679 569 679 549 658 549 633 549 608 567 589 591 589 594 589 601 590 602 591 599 561 574 525 544 505M425 0l75 0 0 667-75 0 0-257C386 463 327 495 262 495 135 495 47 395 47 241 47 84 136-12 262-12 330-12 389 23 425 72M425 131C398 89 340 55 280 55 183 55 125 134 125 241 125 348 183 428 280 428 340 428 398 392 425 350z" unicode="ď"></glyph><glyph d="M568 583l-68 0 0 84-75 0 0-84-157 0 0-48 157 0 0-125C386 463 327 495 262 495 135 495 47 395 47 241 47 84 136-12 262-12 330-12 389 23 425 72l0-72 75 0 0 535 68 0M425 131C398 89 340 55 280 55 183 55 125 134 125 241 125 348 183 428 280 428 340 428 398 392 425 350z" unicode="đ"></glyph><glyph d="M144 433C212 433 267 487 267 555 267 622 212 677 144 677 77 677 23 622 23 555 23 487 77 433 144 433M144 629C185 629 219 595 219 555 219 514 185 481 144 481 104 481 72 514 72 555 72 595 104 629 144 629z" unicode="°"></glyph><glyph d="M293 465C229 484 178 499 178 542 178 585 219 618 285 618 348 618 400 592 429 557l35 52C426 648 368 679 285 679 170 679 106 615 106 540 106 482 141 453 188 431 106 397 47 325 47 223 47 102 139-12 289-12 436-12 525 102 525 220 525 394 394 434 293 465M287 55C184 55 125 143 125 223 125 307 175 373 270 402 361 373 452 340 452 220 452 143 392 55 287 55z" unicode="δ"></glyph><glyph d="M250 35l251 250-251 251-250-251z" unicode="♦"></glyph><glyph d="M103 566C129 566 149 587 149 613 149 638 129 659 103 659 78 659 57 638 57 613 57 587 78 566 103 566M310 566C335 566 356 587 356 613 356 638 335 659 310 659 284 659 263 638 263 613 263 587 284 566 310 566z" unicode="¨"></glyph><glyph d="M162 574l39 0 57 200-77 0M61 566C86 566 107 587 107 613 107 638 86 659 61 659 35 659 14 638 14 613 14 587 35 566 61 566M329 566C355 566 376 587 376 613 376 638 355 659 329 659 304 659 283 638 283 613 283 587 304 566 329 566z" unicode="΅"></glyph><glyph d="M255 480C281 480 302 501 302 526 302 552 281 572 255 572 230 572 210 552 210 526 210 501 230 480 255 480M29 311l453 0 0 52-453 0M255 98C281 98 302 119 302 144 302 169 281 190 255 190 230 190 210 169 210 144 210 119 230 98 255 98z" unicode="÷"></glyph><glyph d="M544 184C544 315 435 353 332 382l0 217C388 591 440 567 479 523l50 61C481 635 415 668 332 675l0 93-61 0 0-91C151 669 63 596 63 492 63 369 169 334 271 307l0-243C192 72 131 113 92 157l-50-63C92 37 169-5 271-11l0-89 61 0 0 90C487 1 544 94 544 184M149 497C149 556 199 598 271 602l0-204C204 417 149 440 149 497M332 65l0 226C401 270 459 245 459 177 459 131 428 73 332 65z" unicode="$"></glyph><glyph d="M568 583l-68 0 0 84-75 0 0-84-157 0 0-48 157 0 0-125C386 463 327 495 262 495 135 495 47 395 47 241 47 84 136-12 262-12 330-12 389 23 425 72l0-72 75 0 0 535 68 0M425 131C398 89 340 55 280 55 183 55 125 134 125 241 125 348 183 428 280 428 340 428 398 392 425 350M120-143l363 0 0 48-363 0z" unicode="₫"></glyph><glyph d="M17 611C17 585 39 564 64 564 90 564 110 585 110 611 110 637 90 658 64 658 39 658 17 637 17 611z" unicode="˙"></glyph><glyph d="M75 0l75 0 0 483-75 0z" unicode="ı"></glyph><glyph d="M115 190C145 190 170 215 170 244 170 274 145 299 115 299 85 299 60 274 60 244 60 215 85 190 115 190z" unicode="⋅"></glyph><glyph d="M47 242C47 91 150-12 293-12 372-12 437 14 485 62l-36 49C411 72 355 50 300 50 196 50 132 126 126 217l391 0 0 19C517 381 431 495 285 495 147 495 47 382 47 242M284 433C394 433 442 344 443 272l-317 0C130 346 181 433 284 433z" unicode="e"></glyph><glyph d="M310 556l169 144-78 0-148-144M47 242C47 91 150-12 293-12 372-12 437 14 485 62l-36 49C411 72 355 50 300 50 196 50 132 126 126 217l391 0 0 19C517 381 431 495 285 495 147 495 47 382 47 242M284 433C394 433 442 344 443 272l-317 0C130 346 181 433 284 433z" unicode="é"></glyph><glyph d="M284 550C356 550 419 584 459 638l-37 32C391 625 342 598 284 598 225 598 177 626 145 670l-37-32C149 584 213 550 284 550M47 242C47 91 150-12 293-12 372-12 437 14 485 62l-36 49C411 72 355 50 300 50 196 50 132 126 126 217l391 0 0 19C517 381 431 495 285 495 147 495 47 382 47 242M284 433C394 433 442 344 443 272l-317 0C130 346 181 433 284 433z" unicode="ĕ"></glyph><glyph d="M248 556l72 0 95 144-51 0-80-106-83 106-51 0M47 242C47 91 150-12 293-12 372-12 437 14 485 62l-36 49C411 72 355 50 300 50 196 50 132 126 126 217l391 0 0 19C517 381 431 495 285 495 147 495 47 382 47 242M284 433C394 433 442 344 443 272l-317 0C130 346 181 433 284 433z" unicode="ě"></glyph><glyph d="M367 556l51 0-98 144-72 0-95-144 51 0 80 106M47 242C47 91 150-12 293-12 372-12 437 14 485 62l-36 49C411 72 355 50 300 50 196 50 132 126 126 217l391 0 0 19C517 381 431 495 285 495 147 495 47 382 47 242M284 433C394 433 442 344 443 272l-317 0C130 346 181 433 284 433z" unicode="ê"></glyph><glyph d="M181 566C207 566 227 587 227 613 227 638 207 659 181 659 156 659 135 638 135 613 135 587 156 566 181 566M388 566C413 566 434 587 434 613 434 638 413 659 388 659 362 659 341 638 341 613 341 587 362 566 388 566M47 242C47 91 150-12 293-12 372-12 437 14 485 62l-36 49C411 72 355 50 300 50 196 50 132 126 126 217l391 0 0 19C517 381 431 495 285 495 147 495 47 382 47 242M284 433C394 433 442 344 443 272l-317 0C130 346 181 433 284 433z" unicode="ë"></glyph><glyph d="M237 611C237 585 259 564 284 564 310 564 330 585 330 611 330 637 310 658 284 658 259 658 237 637 237 611M47 242C47 91 150-12 293-12 372-12 437 14 485 62l-36 49C411 72 355 50 300 50 196 50 132 126 126 217l391 0 0 19C517 381 431 495 285 495 147 495 47 382 47 242M284 433C394 433 442 344 443 272l-317 0C130 346 181 433 284 433z" unicode="ė"></glyph><glyph d="M255 556l57 0-148 144-78 0M47 242C47 91 150-12 293-12 372-12 437 14 485 62l-36 49C411 72 355 50 300 50 196 50 132 126 126 217l391 0 0 19C517 381 431 495 285 495 147 495 47 382 47 242M284 433C394 433 442 344 443 272l-317 0C130 346 181 433 284 433z" unicode="è"></glyph><glyph d="M52 169C52 55 159-12 291-12 422-12 530 56 530 169 530 258 454 319 371 344 448 366 520 416 520 504 520 624 401 677 291 677 180 677 63 624 63 504 63 416 134 366 211 344 128 319 52 258 52 169M436 493C436 412 332 385 291 378 251 385 146 412 146 493 146 562 210 603 291 603 371 603 436 562 436 493M446 178C446 106 373 62 291 62 208 62 135 106 135 178 135 265 250 302 291 307 332 302 446 265 446 178z" unicode="8"></glyph><glyph d="M114-10C144-10 169 16 169 45 169 75 144 100 114 100 84 100 60 75 60 45 60 16 84-10 114-10M344-10C374-10 400 16 400 45 400 75 374 100 344 100 314 100 290 75 290 45 290 16 314-10 344-10M575-10C605-10 630 16 630 45 630 75 605 100 575 100 545 100 520 75 520 45 520 16 545-10 575-10z" unicode="…"></glyph><glyph d="M130 572l307 0 0 48-307 0M47 242C47 91 150-12 293-12 372-12 437 14 485 62l-36 49C411 72 355 50 300 50 196 50 132 126 126 217l391 0 0 19C517 381 431 495 285 495 147 495 47 382 47 242M284 433C394 433 442 344 443 272l-317 0C130 346 181 433 284 433z" unicode="ē"></glyph><glyph d="M30 209l773 0 0 66-773 0z" unicode="—"></glyph><glyph d="M30 209l533 0 0 66-533 0z" unicode="–"></glyph><glyph d="M476-47l0 386C476 444 423 495 322 495 250 495 184 453 150 413l0 70-75 0 0-483 75 0 0 353C178 392 234 428 293 428 358 428 401 401 401 316l0-363C401-108 370-131 326-131 314-131 300-130 290-126l-10-63C296-194 313-196 334-196 425-196 476-142 476-47z" unicode="ŋ"></glyph><glyph d="M293-12C328-12 356-7 379 0 340-29 304-69 304-111 304-161 352-186 402-186 429-186 454-179 470-169l-20 45C440-130 428-133 417-133 393-133 374-118 374-89 374-47 415 3 485 62l-36 49C411 72 355 50 300 50 196 50 132 126 126 217l391 0 0 19C517 381 431 495 285 495 147 495 47 382 47 242 47 91 150-12 293-12M284 433C394 433 442 344 443 272l-317 0C130 346 181 433 284 433z" unicode="ę"></glyph><glyph d="M252-12C343-12 409 18 455 66l-42 52C370 75 318 50 252 50 173 50 125 83 125 134 125 194 180 214 260 214l83 0 0 61-83 0C187 275 134 301 134 356 134 402 185 433 255 433 321 433 368 412 406 369l40 46C403 462 343 494 258 494 138 495 56 447 56 365 56 293 122 254 175 247 123 243 46 209 46 129 46 48 120-12 252-12z" unicode="ε"></glyph><glyph d="M237 574l38 0 57 200-76 0M252-12C343-12 409 18 455 66l-42 52C370 75 318 50 252 50 173 50 125 83 125 134 125 194 180 214 260 214l83 0 0 61-83 0C187 275 134 301 134 356 134 402 185 433 255 433 321 433 368 412 406 369l40 46C403 462 343 494 258 494 138 495 56 447 56 365 56 293 122 254 175 247 123 243 46 209 46 129 46 48 120-12 252-12z" unicode="έ"></glyph><glyph d="M29 404l441 0 0 53-441 0M29 211l441 0 0 52-441 0z" unicode="="></glyph><glyph d="M179 324l632 0 0 9C811 527 636 684 421 684 206 684 31 527 31 333 31 139 206-18 421-18 547-18 659 35 730 118l-57 0C612 47 524 3 423 3 329 3 243 43 183 106 177 112 174 120 174 129l0 190C174 322 176 324 179 324M668 540l0-191C668 346 667 343 664 343l-485 0C176 343 174 346 174 349l0 188C174 546 178 555 184 561 244 623 329 663 423 663 515 663 598 625 658 564 664 558 668 549 668 540z" unicode="℮"></glyph><glyph d="M401-184l75 0 0 523C476 444 423 495 322 495 250 495 184 453 150 413l0 70-75 0 0-483 75 0 0 353C178 392 234 428 293 428 358 428 401 401 401 316z" unicode="η"></glyph><glyph d="M257 574l38 0 57 200-76 0M401-184l75 0 0 523C476 444 423 495 322 495 250 495 184 453 150 413l0 70-75 0 0-483 75 0 0 353C178 392 234 428 293 428 358 428 401 401 401 316z" unicode="ή"></glyph><glyph d="M340 594l85 38-17 41-108-48C265 652 227 677 188 701l-41-62C173 623 198 607 222 591l-118-52 18-42 143 64C331 512 388 457 425 390 381 453 329 479 267 479 138 479 47 374 47 234 47 94 142-12 286-12 433-12 525 98 525 247 525 388 447 502 340 594M286 55C183 55 125 139 125 234 125 328 183 412 286 412 389 412 446 328 446 234 446 139 389 55 286 55z" unicode="ð"></glyph><glyph d="M84 187l62 0 16 480-94 0M60 45C60 16 85-10 115-10 145-10 170 16 170 45 170 75 145 100 115 100 85 100 60 75 60 45z" unicode="!"></glyph><glyph d="M115 493C85 493 60 467 60 438 60 408 85 383 115 383 145 383 170 408 170 438 170 467 145 493 115 493M84 296l-15-480 93 0-16 480z" unicode="¡"></glyph><glyph d="M96 0l75 0 0 417 98 0 0 66-98 0 0 37C171 581 198 615 247 615 264 615 278 611 290 604l19 56C290 672 264 677 236 677 152 677 96 620 96 520l0-37-80 0 0-66 80 0z" unicode="f"></glyph><glyph d="M96 0l75 0 0 417 98 0 0 66-98 0 0 37C171 581 198 615 247 615 264 615 278 611 290 604l19 56C290 672 264 677 236 677 152 677 96 620 96 520l0-37-80 0 0-66 80 0M379 0l75 0 0 417 98 0 0 66-98 0 0 37C454 581 481 615 530 615 547 615 561 611 573 604l19 56C573 672 547 677 519 677 435 677 379 620 379 520l0-37-80 0 0-66 80 0z" unicode="ﬀ"></glyph><glyph d="M96 0l75 0 0 417 98 0 0 66-98 0 0 37C171 581 198 615 247 615 264 615 278 611 290 604l19 56C290 672 264 677 236 677 152 677 96 620 96 520l0-37-80 0 0-66 80 0M379 0l75 0 0 417 98 0 0 66-98 0 0 37C454 581 481 615 530 615 549 615 562 610 573 603l19 57C573 672 547 677 519 677 435 677 379 620 379 520l0-37-80 0 0-66 80 0M678 561C706 561 729 583 729 611 729 639 706 662 678 662 651 662 628 639 628 611 628 583 651 561 678 561M641 0l75 0 0 483-75 0z" unicode="ﬃ"></glyph><glyph d="M96 0l75 0 0 417 98 0 0 66-98 0 0 37C171 581 198 615 247 615 264 615 278 611 290 604l19 56C290 672 264 677 236 677 152 677 96 620 96 520l0-37-80 0 0-66 80 0M379 0l75 0 0 417 98 0 0 66-98 0 0 37C454 581 481 615 530 615 549 615 562 610 573 603l19 57C573 672 547 677 519 677 435 677 379 620 379 520l0-37-80 0 0-66 80 0M678 561C706 561 729 583 729 611 729 639 706 662 678 662 651 662 628 639 628 611 628 583 651 561 678 561M716 483l-75 0 0-530C641-108 610-131 566-131 554-131 540-130 530-126l-10-63C536-194 553-196 574-196 665-196 716-142 716-47z" unicode=""></glyph><glyph d="M96 0l75 0 0 417 98 0 0 66-98 0 0 37C171 581 198 615 247 615 264 615 278 611 290 604l19 56C290 672 264 677 236 677 152 677 96 620 96 520l0-37-80 0 0-66 80 0M379 0l75 0 0 417 98 0 0 66-98 0 0 37C454 581 481 615 530 615 549 615 562 610 573 603l19 57C573 672 547 677 519 677 435 677 379 620 379 520l0-37-80 0 0-66 80 0M641 0l75 0 0 667-75 0z" unicode="ﬄ"></glyph><glyph d="M96 0l75 0 0 417 98 0 0 66-98 0 0 37C171 581 198 615 247 615 266 615 279 610 290 603l19 57C290 672 264 677 236 677 152 677 96 620 96 520l0-37-80 0 0-66 80 0M395 561C423 561 446 583 446 611 446 639 423 662 395 662 368 662 345 639 345 611 345 583 368 561 395 561M433 483l-75 0 0-530C358-108 327-131 283-131 271-131 257-130 247-126l-10-63C253-194 270-196 291-196 382-196 433-142 433-47z" unicode=""></glyph><glyph d="M96 0l75 0 0 417 98 0 0 66-98 0 0 37C171 581 198 615 247 615 266 615 279 610 290 603l19 57C290 672 264 677 236 677 152 677 96 620 96 520l0-37-80 0 0-66 80 0M395 561C423 561 446 583 446 611 446 639 423 662 395 662 368 662 345 639 345 611 345 583 368 561 395 561M358 0l75 0 0 483-75 0z" unicode="ﬁ"></glyph><glyph d="M47 0l571 0 0 572-571 0z" unicode="■"></glyph><glyph d="M66 95C116 29 188-12 301-12 435-12 538 72 538 208 538 345 437 421 326 421 259 421 202 393 170 361l0 232 325 0 0 74-408 0 0-360 61-21C193 330 243 349 302 349 392 349 455 293 455 205 455 124 392 62 301 62 219 62 161 94 117 150z" unicode="5"></glyph><glyph d="M192 260C279 260 344 312 344 393 344 477 281 520 212 520 170 520 136 503 116 484l0 134 201 0 0 49-261 0 0-217 43-15C126 462 157 474 194 474 248 474 284 441 284 391 284 345 247 309 192 309 143 309 106 329 79 364l-35-39C74 285 122 260 192 260M271 0l427 667-56 0-426-667M720-7C801-7 873 30 873 102 873 155 826 193 772 206 822 218 866 249 866 301 866 375 790 406 720 406 650 406 574 375 574 301 574 249 618 218 668 206 614 193 567 155 567 102 567 29 638-7 720-7M720 358C768 358 806 335 806 294 806 245 741 230 720 226 699 230 633 245 633 294 633 335 671 358 720 358M720 184C742 181 813 161 813 107 813 65 770 40 720 40 669 40 626 65 626 107 626 161 698 181 720 184z" unicode="⅝"></glyph><glyph d="M96 0l75 0 0 417 98 0 0 66-98 0 0 37C171 581 198 615 247 615 266 615 279 610 290 603l19 57C290 672 264 677 236 677 152 677 96 620 96 520l0-37-80 0 0-66 80 0M358 0l75 0 0 667-75 0z" unicode="ﬂ"></glyph><glyph d="M349 0l83 0 0 169 94 0 0 73-94 0 0 425-114 0-286-429 0-69 317 0M349 590l0-348-234 0z" unicode="4"></glyph><glyph d="M-117 0l427 667-56 0-426-667z" unicode="⁄"></glyph><glyph d="M74-124C131-180 187-196 269-196 387-196 499-146 499 14l0 469-75 0 0-73C385 463 327 495 262 495 135 495 47 399 47 244 47 88 136-6 262-6 330-6 389 31 424 80l0-69C424-95 349-134 269-134 200-134 152-116 112-68M424 139C398 97 340 60 280 60 183 60 125 138 125 244 125 351 183 428 280 428 340 428 398 392 424 350z" unicode="g"></glyph><glyph d="M208-184l75 0 0 189C389 141 462 326 462 483l-75 0C387 346 330 191 260 93 246 223 169 394 81 483l-88 0C113 364 208 159 208-49z" unicode="γ"></glyph><glyph d="M290 550C362 550 425 584 465 638l-37 32C397 625 348 598 290 598 231 598 183 626 151 670l-37-32C155 584 219 550 290 550M74-124C131-180 187-196 269-196 387-196 499-146 499 14l0 469-75 0 0-73C385 463 327 495 262 495 135 495 47 399 47 244 47 88 136-6 262-6 330-6 389 31 424 80l0-69C424-95 349-134 269-134 200-134 152-116 112-68M424 139C398 97 340 60 280 60 183 60 125 138 125 244 125 351 183 428 280 428 340 428 398 392 424 350z" unicode="ğ"></glyph><glyph d="M373 556l51 0-98 144-72 0-95-144 51 0 80 106M74-124C131-180 187-196 269-196 387-196 499-146 499 14l0 469-75 0 0-73C385 463 327 495 262 495 135 495 47 399 47 244 47 88 136-6 262-6 330-6 389 31 424 80l0-69C424-95 349-134 269-134 200-134 152-116 112-68M424 139C398 97 340 60 280 60 183 60 125 138 125 244 125 351 183 428 280 428 340 428 398 392 424 350z" unicode="ĝ"></glyph><glyph d="M243 611C243 585 265 564 290 564 316 564 336 585 336 611 336 637 316 658 290 658 265 658 243 637 243 611M74-124C131-180 187-196 269-196 387-196 499-146 499 14l0 469-75 0 0-73C385 463 327 495 262 495 135 495 47 399 47 244 47 88 136-6 262-6 330-6 389 31 424 80l0-69C424-95 349-134 269-134 200-134 152-116 112-68M424 139C398 97 340 60 280 60 183 60 125 138 125 244 125 351 183 428 280 428 340 428 398 392 424 350z" unicode="ġ"></glyph><glyph d="M392-12C516-12 578 57 578 135 578 243 484 266 404 285 344 299 291 312 291 357 291 395 323 416 357 438 397 464 441 492 441 551 441 629 358 677 266 677 149 677 75 597 75 499l0-499 75 0 0 499C150 568 202 610 265 610 312 610 364 587 364 542 364 514 336 496 305 475 264 449 218 417 218 356 218 259 307 236 385 217 448 200 505 185 505 133 505 90 468 49 392 49 325 49 272 81 244 118l-38-52C248 23 295-12 392-12z" unicode="ß"></glyph><glyph d="M169 556l57 0-148 144-78 0z" unicode="`"></glyph><glyph d="M29 90l441 218 0 53-441 219 0-63 376-183-376-182z" unicode="&amp;gt;"></glyph><glyph d="M28 99l441 218 0 53-441 219 0-63 377-183-377-182M28 0l441 0 0 52-441 0z" unicode="≥"></glyph><glyph d="M190 63l75 0-160 180 160 177-75 0-160-177M334 63l75 0-160 180 160 177-75 0-160-177z" unicode="«"></glyph><glyph d="M105 63l160 180-160 177-75 0 160-177-160-180M249 63l160 180-160 177-75 0 160-177-160-180z" unicode="»"></glyph><glyph d="M190 63l75 0-160 180 160 177-75 0-160-177z" unicode="‹"></glyph><glyph d="M105 63l160 180-160 177-75 0 160-177-160-180z" unicode="›"></glyph><glyph d="M402 0l75 0 0 341C477 446 424 495 323 495 250 495 184 453 150 413l0 254-75 0 0-667 75 0 0 353C179 392 235 428 293 428 358 428 402 403 402 318z" unicode="h"></glyph><glyph d="M325 495C252 495 186 453 152 413l0 122 157 0 0 48-157 0 0 84-75 0 0-84-68 0 0-48 68 0 0-535 75 0 0 353C181 392 237 428 295 428 360 428 404 403 404 318l0-318 75 0 0 341C479 446 425 495 325 495z" unicode="ħ"></glyph><glyph d="M359 723l51 0-98 144-72 0-95-144 51 0 80 106M402 0l75 0 0 341C477 446 424 495 323 495 250 495 184 453 150 413l0 254-75 0 0-667 75 0 0 353C179 392 235 428 293 428 358 428 402 403 402 318z" unicode="ĥ"></glyph><glyph d="M48 556l115 144-69 0-94-144M190 556l115 144-69 0-94-144z" unicode="˝"></glyph><glyph d="M30 209l240 0 0 66-240 0z" unicode="-"></glyph><glyph d="M112 561C140 561 163 583 163 611 163 639 140 662 112 662 85 662 62 639 62 611 62 583 85 561 112 561M75 0l75 0 0 483-75 0z" unicode="i"></glyph><glyph d="M138 556l169 144-78 0-148-144M75 0l75 0 0 483-75 0z" unicode="í"></glyph><glyph d="M112 550C184 550 247 584 287 638l-37 32C219 625 170 598 112 598 53 598 5 626-27 670l-37-32C-23 584 41 550 112 550M75 0l75 0 0 483-75 0z" unicode="ĭ"></glyph><glyph d="M195 556l51 0-98 144-72 0-95-144 51 0 80 106M75 0l75 0 0 483-75 0z" unicode="î"></glyph><glyph d="M9 566C35 566 55 587 55 613 55 638 35 659 9 659-16 659-37 638-37 613-37 587-16 566 9 566M216 566C241 566 262 587 262 613 262 638 241 659 216 659 190 659 169 638 169 613 169 587 190 566 216 566M75 0l75 0 0 483-75 0z" unicode="ï"></glyph><glyph d="M84 556l57 0-148 144-78 0M75 0l75 0 0 483-75 0z" unicode="ì"></glyph><glyph d="M337 561C365 561 388 583 388 611 388 639 365 662 337 662 310 662 287 639 287 611 287 583 310 561 337 561M112 561C140 561 163 583 163 611 163 639 140 662 112 662 85 662 62 639 62 611 62 583 85 561 112 561M75 0l75 0 0 483-75 0M375 483l-75 0 0-530C300-108 269-131 225-131 213-131 199-130 189-126l-10-63C195-194 212-196 233-196 324-196 375-142 375-47z" unicode="ĳ"></glyph><glyph d="M-42 572l307 0 0 48-307 0M75 0l75 0 0 483-75 0z" unicode="ī"></glyph><glyph d="M29 335C29 256 75 170 183 170 251 170 301 221 327 279 355 221 405 170 473 170 581 170 627 256 627 335 627 415 581 500 473 500 405 500 355 449 327 391 301 449 251 500 183 500 75 500 29 416 29 335M304 335C283 280 245 222 189 222 124 222 85 271 85 335 85 400 124 448 189 448 245 448 283 390 304 335M571 335C571 270 533 223 468 223 412 223 373 280 353 335 373 390 412 448 468 448 533 448 571 400 571 335z" unicode="∞"></glyph><glyph d="M17-100l61 0C142-100 203-48 203 34l0 599C203 680 233 713 269 713l62 0 0 55-62 0C206 768 144 716 144 633l0-598C144-11 114-45 78-45l-61 0z" unicode="∫"></glyph><glyph d="M112 561C140 561 163 583 163 611 163 639 140 662 112 662 85 662 62 639 62 611 62 583 85 561 112 561M75 0l12 0C29-26-16-66-16-111-16-161 32-186 82-186 109-186 134-179 150-169l-20 45C120-130 108-133 98-133 74-133 56-118 56-94 56-56 94-24 150 0l0 483-75 0z" unicode="į"></glyph><glyph d="M75 101C75 29 111-12 182-12 196-12 211-10 222-8l-6 65C212 56 204 55 197 55 166 55 150 78 150 113l0 370-75 0z" unicode="ι"></glyph><glyph d="M9 566C35 566 55 587 55 613 55 638 35 659 9 659-16 659-37 638-37 613-37 587-16 566 9 566M216 566C241 566 262 587 262 613 262 638 241 659 216 659 190 659 169 638 169 613 169 587 190 566 216 566M75 101C75 29 111-12 182-12 196-12 211-10 222-8l-6 65C212 56 204 55 197 55 166 55 150 78 150 113l0 370-75 0z" unicode="ϊ"></glyph><glyph d="M93 574l39 0 57 200-77 0M-8 566C17 566 38 587 38 613 38 638 17 659-8 659-34 659-55 638-55 613-55 587-34 566-8 566M260 566C286 566 307 587 307 613 307 638 286 659 260 659 235 659 214 638 214 613 214 587 235 566 260 566M75 101C75 29 111-12 182-12 196-12 211-10 222-8l-6 65C212 56 204 55 197 55 166 55 150 78 150 113l0 370-75 0z" unicode="ΐ"></glyph><glyph d="M93 574l38 0 57 200-76 0M75 101C75 29 111-12 182-12 196-12 211-10 222-8l-6 65C212 56 204 55 197 55 166 55 150 78 150 113l0 370-75 0z" unicode="ί"></glyph><glyph d="M96 607C113 582 132 554 172 554 235 554 269 610 269 688l-45 0C224 628 203 602 176 602 154 602 142 621 128 641 111 666 93 694 53 694-10 694-44 638-44 560l45 0C1 620 22 646 49 646 71 646 83 627 96 607M75 0l75 0 0 483-75 0z" unicode="ĩ"></glyph><glyph d="M112 561C140 561 163 583 163 611 163 639 140 662 112 662 85 662 62 639 62 611 62 583 85 561 112 561M150 483l-75 0 0-530C75-108 44-131 0-131-12-131-26-130-36-126l-10-63C-30-194-13-196 8-196 99-196 150-142 150-47z" unicode="j"></glyph><glyph d="M195 556l51 0-98 144-72 0-95-144 51 0 80 106M-46-189C-30-194-13-196 8-196 99-196 150-142 150-47l0 530-75 0 0-530C75-108 44-131 0-131-12-131-26-130-36-126z" unicode="ĵ"></glyph><glyph d="M404 0l96 0-215 264 214 219-95 0-254-257 0 441-75 0 0-667 75 0 0 138 80 79z" unicode="k"></glyph><glyph d="M404 0l96 0-215 264 214 219-95 0-254-257 0 257-75 0 0-483 75 0 0 138 80 79z" unicode="κ"></glyph><glyph d="M404 0l96 0-215 264 214 219-95 0-254-257 0 257-75 0 0-483 75 0 0 138 80 79z" unicode="ĸ"></glyph><glyph d="M75 0l75 0 0 667-75 0z" unicode="l"></glyph><glyph d="M138 723l169 144-78 0-148-144M75 0l75 0 0 667-75 0z" unicode="ĺ"></glyph><glyph d="M103 679C87 679 62 676 48 671l12-67C71 609 89 612 101 612 134 612 156 601 173 560l32-73-202-487 81 0 161 396 160-396 82 0-242 581C216 651 167 678 103 679z" unicode="λ"></glyph><glyph d="M227 479C267 507 299 558 299 613 299 656 273 679 245 679 219 679 199 658 199 633 199 608 217 589 241 589 245 589 251 590 253 591 250 561 224 525 195 505M75 0l75 0 0 667-75 0z" unicode="ľ"></glyph><glyph d="M75 0l75 0 0 667-75 0M265 190C295 190 321 215 321 244 321 274 295 299 265 299 235 299 210 274 210 244 210 215 235 190 265 190z" unicode="ŀ"></glyph><glyph d="M29 308l441-218 0 62-377 182 377 183 0 63-441-219z" unicode="&amp;lt;"></glyph><glyph d="M29 317l441-218 0 62-377 182 377 183 0 63-441-219M29 0l441 0 0 52-441 0z" unicode="≤"></glyph><glyph d="M472 101C458 83 421 61 377 61 349 61 329 70 308 80 285 91 262 102 229 102 211 102 191 98 177 93 215 120 248 158 252 212l116 0 0 46-119 0C243 285 229 307 214 328l154 0 0 46-191 0C155 402 137 434 137 479 137 559 204 607 280 607 341 607 390 567 407 525l67 40C437 636 363 677 272 677 150 677 48 590 48 480 48 436 63 403 83 374l-64 0 0-46 101 0C139 305 158 284 169 258l-150 0 0-46 160 0 0-4C179 148 131 93 46 55l30-62C118 15 159 33 194 33 230 33 252 22 275 11 300-1 326-13 373-13 436-13 480 7 508 34z" unicode="₤"></glyph><glyph d="M470 211l0 246-441 0 0-53 386 0 0-193z" unicode="¬"></glyph><glyph d="M96 0l75 0 0 520C171 581 198 615 247 615 264 615 278 611 290 604l19 56C290 672 264 677 236 677 152 677 96 620 96 520l0-37-80 0 0-66 80 0z" unicode="ſ"></glyph><glyph d="M177 0l21 0 158 334-158 333-21 0-158-333M320 334l-132-293-133 293 132 292z" unicode="◊"></glyph><glyph d="M276 440l-95-54 0 281-75 0 0-324-96-55 0-60 96 55 0-283 75 0 0 326 95 54z" unicode="ł"></glyph><glyph d="M658 0l75 0 0 349C733 446 686 495 598 495 528 495 463 449 436 405 422 455 380 495 306 495 235 495 170 444 150 413l0 70-75 0 0-483 75 0 0 353C176 392 228 428 277 428 340 428 366 389 366 328l0-328 75 0 0 354C466 392 519 428 569 428 631 428 658 389 658 328z" unicode="m"></glyph><glyph d="M28 572l307 0 0 48-307 0z" unicode="¯"></glyph><glyph d="M29 311l441 0 0 52-441 0z" unicode="−"></glyph><glyph d="M249 297l149-149 37 37-148 149 148 148-37 38-149-149-148 149-37-38 148-148-148-149 37-37z" unicode="×"></glyph><glyph d="M401 0l75 0 0 339C476 444 423 495 322 495 250 495 184 453 150 413l0 70-75 0 0-483 75 0 0 353C178 392 234 428 293 428 358 428 401 401 401 316z" unicode="n"></glyph><glyph d="M302 556l169 144-78 0-148-144M401 0l75 0 0 339C476 444 423 495 322 495 250 495 184 453 150 413l0 70-75 0 0-483 75 0 0 353C178 392 234 428 293 428 358 428 401 401 401 316z" unicode="ń"></glyph><glyph d="M89 543C129 571 161 622 161 677 161 719 136 743 108 743 81 743 62 722 62 697 62 671 80 653 103 653 107 653 114 654 115 654 112 625 87 588 57 568M401 0l75 0 0 339C476 444 423 495 322 495 250 495 184 453 150 413l0 70-75 0 0-483 75 0 0 353C178 392 234 428 293 428 358 428 401 401 401 316z" unicode="ŉ"></glyph><glyph d="M240 556l72 0 95 144-51 0-80-106-83 106-51 0M401 0l75 0 0 339C476 444 423 495 322 495 250 495 184 453 150 413l0 70-75 0 0-483 75 0 0 353C178 392 234 428 293 428 358 428 401 401 401 316z" unicode="ň"></glyph><glyph d="M84 69C126 21 184-11 269-11 456-11 540 153 540 333 540 515 469 678 282 678 137 678 49 575 49 460 49 318 148 247 268 247 353 247 427 305 456 351 457 342 457 333 457 324 457 198 404 63 269 63 200 63 160 91 126 131M453 418C418 359 353 319 287 319 201 319 133 365 133 463 133 526 184 604 286 604 402 604 446 501 453 418z" unicode="9"></glyph><glyph d="M69 93l54 0 75 118 272 0 0 52-238 0 90 141 148 0 0 53-115 0 75 117-55 0-74-117-272 0 0-53 238 0-90-141-148 0 0-52 115 0z" unicode="≠"></glyph><glyph d="M260 607C277 582 296 554 336 554 399 554 433 610 433 688l-45 0C388 628 367 602 340 602 318 602 306 621 292 641 275 666 257 694 217 694 154 694 120 638 120 560l45 0C165 620 186 646 213 646 235 646 247 627 260 607M401 0l75 0 0 339C476 444 423 495 322 495 250 495 184 453 150 413l0 70-75 0 0-483 75 0 0 353C178 392 234 428 293 428 358 428 401 401 401 316z" unicode="ñ"></glyph><glyph d="M204 0l75 0C388 137 462 325 462 483l-75 0C387 346 333 193 248 76l-164 407-81 0z" unicode="ν"></glyph><glyph d="M239 0l61 0 60 181 113 0 16 53-111 0 67 199 109 0 15 52-107 0 61 182-61 0-60-182-110 0 60 182-62 0-60-182-110 0-16-52 108 0-66-199-107 0-17-53 106 0-61-181 62 0 60 181 111 0M383 433l-66-199-110 0 66 199z" unicode="#"></glyph><glyph d="M286-12C433-12 525 102 525 242 525 382 433 495 286 495 139 495 47 382 47 242 47 102 139-12 286-12M286 55C183 55 125 143 125 242 125 340 183 428 286 428 389 428 446 340 446 242 446 143 389 55 286 55z" unicode="o"></glyph><glyph d="M312 556l169 144-78 0-148-144M286-12C433-12 525 102 525 242 525 382 433 495 286 495 139 495 47 382 47 242 47 102 139-12 286-12M286 55C183 55 125 143 125 242 125 340 183 428 286 428 389 428 446 340 446 242 446 143 389 55 286 55z" unicode="ó"></glyph><glyph d="M286 550C358 550 421 584 461 638l-37 32C393 625 344 598 286 598 227 598 179 626 147 670l-37-32C151 584 215 550 286 550M286-12C433-12 525 102 525 242 525 382 433 495 286 495 139 495 47 382 47 242 47 102 139-12 286-12M286 55C183 55 125 143 125 242 125 340 183 428 286 428 389 428 446 340 446 242 446 143 389 55 286 55z" unicode="ŏ"></glyph><glyph d="M369 556l51 0-98 144-72 0-95-144 51 0 80 106M286-12C433-12 525 102 525 242 525 382 433 495 286 495 139 495 47 382 47 242 47 102 139-12 286-12M286 55C183 55 125 143 125 242 125 340 183 428 286 428 389 428 446 340 446 242 446 143 389 55 286 55z" unicode="ô"></glyph><glyph d="M182 566C208 566 228 587 228 613 228 638 208 659 182 659 157 659 136 638 136 613 136 587 157 566 182 566M389 566C414 566 435 587 435 613 435 638 414 659 389 659 363 659 342 638 342 613 342 587 363 566 389 566M286-12C433-12 525 102 525 242 525 382 433 495 286 495 139 495 47 382 47 242 47 102 139-12 286-12M286 55C183 55 125 143 125 242 125 340 183 428 286 428 389 428 446 340 446 242 446 143 389 55 286 55z" unicode="ö"></glyph><glyph d="M526 217l390 0 0 19C916 381 830 495 684 495 569 495 508 409 486 357 464 408 406 495 286 495 139 495 47 382 47 242 47 102 139-12 286-12 406-12 461 73 485 126 510 70 569-12 693-12 771-12 836 14 885 62l-36 49C810 72 755 50 699 50 595 50 532 126 526 217M843 272l-318 0C529 346 580 433 683 433 793 433 841 344 843 272M286 428C387 428 446 343 446 242 446 140 387 54 286 54 185 54 125 140 125 242 125 343 185 428 286 428z" unicode="œ"></glyph><glyph d="M180-169l-20 45C150-130 138-133 128-133 104-133 86-118 86-94 86-56 124-24 180 0l-49 6C67-20 14-62 14-111 14-161 62-186 112-186 139-186 164-179 180-169z" unicode="˛"></glyph><glyph d="M257 556l57 0-148 144-78 0M286-12C433-12 525 102 525 242 525 382 433 495 286 495 139 495 47 382 47 242 47 102 139-12 286-12M286 55C183 55 125 143 125 242 125 340 183 428 286 428 389 428 446 340 446 242 446 143 389 55 286 55z" unicode="ò"></glyph><glyph d="M527 530C527 570 504 593 477 593 453 593 434 573 434 550 434 526 451 509 474 509l11 1C482 486 466 458 443 438 403 474 350 495 286 495 139 495 47 382 47 242 47 102 139-12 286-12 433-12 525 102 525 242 525 307 505 366 469 411 502 438 527 483 527 530M286 55C183 55 125 143 125 242 125 340 183 428 286 428 389 428 446 340 446 242 446 143 389 55 286 55z" unicode="ơ"></glyph><glyph d="M235 556l115 144-69 0-94-144M377 556l115 144-69 0-94-144M286-12C433-12 525 102 525 242 525 382 433 495 286 495 139 495 47 382 47 242 47 102 139-12 286-12M286 55C183 55 125 143 125 242 125 340 183 428 286 428 389 428 446 340 446 242 446 143 389 55 286 55z" unicode="ő"></glyph><glyph d="M132 572l307 0 0 48-307 0M286-12C433-12 525 102 525 242 525 382 433 495 286 495 139 495 47 382 47 242 47 102 139-12 286-12M286 55C183 55 125 143 125 242 125 340 183 428 286 428 389 428 446 340 446 242 446 143 389 55 286 55z" unicode="ō"></glyph><glyph d="M544-12C657-12 724 102 724 232 724 349 691 442 627 495l-66-32C628 404 646 321 646 232 646 143 608 55 534 55 456 55 423 143 423 242l0 123-75 0 0-123C348 143 315 55 237 55 163 55 125 143 125 232 125 321 143 404 210 463l-65 32C81 442 47 349 47 232 47 102 114-12 228-12 323-12 365 64 386 135 406 64 449-12 544-12z" unicode="ω"></glyph><glyph d="M366 574l38 0 57 200-76 0M544-12C657-12 724 102 724 232 724 349 691 442 627 495l-66-32C628 404 646 321 646 232 646 143 608 55 534 55 456 55 423 143 423 242l0 123-75 0 0-123C348 143 315 55 237 55 163 55 125 143 125 232 125 321 143 404 210 463l-65 32C81 442 47 349 47 232 47 102 114-12 228-12 323-12 365 64 386 135 406 64 449-12 544-12z" unicode="ώ"></glyph><glyph d="M286-12C433-12 525 102 525 242 525 382 433 495 286 495 139 495 47 382 47 242 47 102 139-12 286-12M286 55C183 55 125 143 125 242 125 340 183 428 286 428 389 428 446 340 446 242 446 143 389 55 286 55z" unicode="ο"></glyph><glyph d="M266 574l38 0 57 200-76 0M286-12C433-12 525 102 525 242 525 382 433 495 286 495 139 495 47 382 47 242 47 102 139-12 286-12M286 55C183 55 125 143 125 242 125 340 183 428 286 428 389 428 446 340 446 242 446 143 389 55 286 55z" unicode="ό"></glyph><glyph d="M178 0l83 0 0 667-73 0-167-172 50-51 107 113z" unicode="1"></glyph><glyph d="M115 267l60 0 0 400-53 0-108-110 35-37 66 69M153 0l427 667-56 0-426-667M602-7C683-7 755 30 755 102 755 155 708 193 654 206 704 218 748 249 748 301 748 375 672 406 602 406 532 406 456 375 456 301 456 249 500 218 550 206 496 193 449 155 449 102 449 29 520-7 602-7M602 358C650 358 688 335 688 294 688 245 623 230 602 226 581 230 515 245 515 294 515 335 553 358 602 358M602 184C624 181 695 161 695 107 695 65 652 40 602 40 551 40 508 65 508 107 508 161 580 181 602 184z" unicode="⅛"></glyph><glyph d="M115 267l60 0 0 400-53 0-108-110 35-37 66 69M153 0l427 667-56 0-426-667M458 0l291 0 0 49-203 0C664 134 747 207 747 288 747 369 677 406 604 406 547 406 490 385 457 343l33-38C511 333 552 357 602 357 645 357 687 335 687 284 687 219 611 154 458 45z" unicode="½"></glyph><glyph d="M115 267l60 0 0 400-53 0-108-110 35-37 66 69M153 0l427 667-56 0-426-667M652 100l58 0 0 49-58 0 0 251-83 0-172-256 0-44 196 0 0-100 59 0M593 347l0-198-136 0z" unicode="¼"></glyph><glyph d="M260 326l57 0 0 211C317 618 257 648 188 648 136 648 92 630 57 594l25-37C110 589 146 603 181 603 224 603 260 579 260 538l0-55C236 508 201 525 153 525 98 525 41 491 41 422 41 355 98 318 153 318 201 318 236 335 260 361M260 394C242 370 209 356 175 356 131 356 99 382 99 422 99 461 131 488 175 488 209 488 242 474 260 450z" unicode="ª"></glyph><glyph d="M40 483C40 392 103 318 202 318 303 318 365 392 365 483 365 574 303 648 202 648 103 648 40 574 40 483M306 483C306 417 268 366 202 366 137 366 100 417 100 483 100 548 137 598 202 598 268 598 306 548 306 483z" unicode="º"></glyph><glyph d="M455 426l45 57-54 0-23-29C386 480 339 495 286 495 139 495 47 382 47 242 47 171 70 108 112 61l-48-61 54 0 26 33C182 5 230-12 286-12 433-12 525 102 525 242 525 315 500 380 455 426M125 242C125 340 183 428 286 428 323 428 354 417 378 398l-218-277C137 155 125 197 125 242M286 55C246 55 214 68 188 89l220 278C433 333 446 289 446 242 446 143 389 55 286 55z" unicode="ø"></glyph><glyph d="M481 700l-78 0-148-144 57 0M455 426l45 57-54 0-23-29C386 480 339 495 286 495 139 495 47 382 47 242 47 171 70 108 112 61l-48-61 54 0 26 33C182 5 230-12 286-12 433-12 525 102 525 242 525 315 500 380 455 426M125 242C125 340 183 428 286 428 323 428 354 417 378 398l-218-277C137 155 125 197 125 242M286 55C246 55 214 68 188 89l220 278C433 333 446 289 446 242 446 143 389 55 286 55z" unicode="ǿ"></glyph><glyph d="M270 607C287 582 306 554 346 554 409 554 443 610 443 688l-45 0C398 628 377 602 350 602 328 602 316 621 302 641 285 666 267 694 227 694 164 694 130 638 130 560l45 0C175 620 196 646 223 646 245 646 257 627 270 607M286-12C433-12 525 102 525 242 525 382 433 495 286 495 139 495 47 382 47 242 47 102 139-12 286-12M286 55C183 55 125 143 125 242 125 340 183 428 286 428 389 428 446 340 446 242 446 143 389 55 286 55z" unicode="õ"></glyph><glyph d="M150-184l0 257C189 19 247-12 313-12 440-12 528 86 528 242 528 399 440 495 313 495 245 495 185 460 150 411l0 72-75 0 0-667M449 242C449 135 391 55 294 55 235 55 176 91 150 133l0 218C176 393 235 428 294 428 391 428 449 349 449 242z" unicode="p"></glyph><glyph d="M333-100l45 0 0 767-179 0C104 667 27 590 27 495 27 400 104 323 199 323l0-423 45 0 0 722 89 0z" unicode="¶"></glyph><glyph d="M185-199l45 35C166-38 126 77 126 243 126 410 166 524 230 651l-45 34C95 561 44 404 44 243 44 82 95-76 185-199z" unicode="("></glyph><glyph d="M122 243C122 77 82-38 17-164l45-35C153-76 204 82 204 243 204 404 153 561 62 685l-45-34C82 524 122 410 122 243z" unicode=")"></glyph><glyph d="M47 234C47 98 139-12 286-12 433-12 525 98 525 249 525 449 375 604 229 680l-56-46C295 574 383 484 422 397 381 457 329 479 267 479 137 479 47 370 47 234M446 234C446 138 389 55 286 55 183 55 125 138 125 234 125 328 183 412 286 412 389 412 446 328 446 234z" unicode="∂"></glyph><glyph d="M31 511C31 418 96 348 191 348 287 348 353 418 353 511 353 605 287 677 191 677 96 677 31 605 31 511M128 0l54 0 427 667-55 0M293 511C293 448 251 398 191 398 132 398 91 448 91 511 91 577 132 626 191 626 251 626 293 577 293 511M379 151C379 58 444-12 539-12 634-12 700 58 700 151 700 245 634 317 539 317 444 317 379 245 379 151M641 151C641 88 599 38 539 38 479 38 438 88 438 151 438 217 479 266 539 266 599 266 641 217 641 151z" unicode="%"></glyph><glyph d="M60 45C60 15 85-10 115-10 145-10 170 15 170 45 170 75 145 100 115 100 85 100 60 75 60 45z" unicode="."></glyph><glyph d="M115 190C145 190 170 215 170 244 170 274 145 299 115 299 85 299 60 274 60 244 60 215 85 190 115 190z" unicode="·"></glyph><glyph d="M191 348C287 348 353 418 353 511 353 605 287 677 191 677 96 677 31 605 31 511 31 418 96 348 191 348M182 0l427 667-55 0-426-667M191 630C251 630 293 579 293 511 293 445 251 395 191 395 132 395 91 445 91 511 91 579 132 630 191 630M539-12C634-12 700 58 700 151 700 245 634 317 539 317 444 317 379 245 379 151 379 58 444-12 539-12M891-12C986-12 1052 58 1052 151 1052 245 986 317 891 317 796 317 731 245 731 151 731 58 796-12 891-12M539 270C599 270 641 219 641 151 641 85 599 35 539 35 479 35 438 85 438 151 438 219 479 270 539 270M891 270C951 270 993 219 993 151 993 85 951 35 891 35 831 35 791 85 791 151 791 219 831 270 891 270z" unicode="‰"></glyph><glyph d="M636 491l-72 0C553 588 479 667 356 667l-268 0 0-176-78 0 0-51 78 0 0-440 83 0 0 265 185 0C478 265 552 343 564 440l72 0M171 593l175 0C416 593 466 552 477 491l-306 0M346 339l-175 0 0 101 306 0C466 379 416 339 346 339z" unicode="₧"></glyph><glyph d="M644 236C644 384 549 483 358 483l-50 0 0-428C190 57 125 133 125 251 125 333 172 399 251 435l-35 56C122 451 47 368 47 251 47 96 141-4 308-11l0-173 75 0 0 173C551-4 644 90 644 236M383 55l0 361C501 414 566 346 566 236 566 126 501 57 383 55z" unicode="φ"></glyph><glyph d="M417 0l75 0 0 417 80 0 0 66-562 0 0-66 80 0 0-417 75 0 0 417 252 0z" unicode="π"></glyph><glyph d="M278 311l192 0 0 52-192 0 0 207-57 0 0-207-192 0 0-52 192 0 0-213 57 0z" unicode="+"></glyph><glyph d="M278 324l192 0 0 52-192 0 0 207-57 0 0-207-192 0 0-52 192 0 0-214 57 0M29 0l441 0 0 52-441 0z" unicode="±"></glyph><glyph d="M483-90l83 0 0 683 109 0 0 74-643 0 0-74 109 0 0-683 83 0 0 683 259 0z" unicode="∏"></glyph><glyph d="M558 483l0-261C558 126 508 66 391 56l0 611-75 0 0-611C199 66 150 126 150 222l0 261-75 0 0-261C75 88 144 0 316-11l0-173 75 0 0 173C563 0 633 87 633 222l0 261z" unicode="ψ"></glyph><glyph d="M499-184l0 667-75 0 0-72C389 460 330 495 262 495 135 495 47 399 47 242 47 86 135-12 262-12 327-12 385 19 424 73l0-257M424 133C398 91 340 55 280 55 183 55 125 135 125 242 125 349 183 428 280 428 340 428 398 393 424 351z" unicode="q"></glyph><glyph d="M164 266C164 236 176 208 203 185l61 26C247 224 237 244 237 260 237 304 276 330 319 360 372 397 431 438 431 522 431 608 357 677 235 677 140 677 66 637 18 575l50-54C105 570 152 603 227 603 306 603 345 560 345 510 345 459 304 431 260 401 214 368 164 333 164 266M169 45C169 15 194-10 224-10 254-10 279 15 279 45 279 75 254 100 224 100 194 100 169 75 169 45z" unicode="?"></glyph><glyph d="M293 437C293 467 268 493 238 493 208 493 183 467 183 437 183 408 208 383 238 383 268 383 293 408 293 437M297 214C297 245 285 272 258 296l-60-27C214 257 224 237 224 221 224 177 186 150 143 120 90 84 31 42 31-41 31-127 105-196 227-196 322-196 395-157 443-94l-49 53C357-90 310-122 234-122 156-122 117-79 117-30 117 21 158 50 201 80 248 113 297 147 297 214z" unicode="¿"></glyph><glyph d="M81 412l37 0C118 412 145 617 145 631 145 656 125 677 99 677 74 677 54 656 54 631 54 617 81 412 81 412M226 412l37 0C263 412 290 617 290 631 290 656 270 677 245 677 219 677 199 656 199 631 199 617 226 412 226 412z" unicode="&amp;quot;"></glyph><glyph d="M94-127C140-94 176-37 176 24 176 72 146 100 113 100 83 100 60 75 60 46 60 16 80-5 108-5 113-5 120-4 122-3 118-36 89-75 57-96M255-127C300-94 336-37 336 24 336 72 306 100 273 100 244 100 220 75 220 46 220 16 241-5 269-5 273-5 280-4 282-3 278-36 250-75 218-96z" unicode="„"></glyph><glyph d="M135 677C89 644 54 588 54 527 54 478 83 451 116 451 146 451 169 475 169 504 169 534 149 555 121 555 116 555 109 554 108 554 111 586 140 626 172 647M295 677C249 644 214 588 214 527 214 478 243 451 276 451 306 451 330 475 330 504 330 534 309 555 281 555 276 555 269 554 268 554 272 586 300 626 332 647z" unicode="“"></glyph><glyph d="M94 450C140 483 176 540 176 601 176 650 146 677 113 677 83 677 60 652 60 623 60 593 80 572 108 572 113 572 120 573 122 574 118 542 89 502 57 481M255 450C300 483 336 540 336 601 336 650 306 677 273 677 244 677 220 652 220 623 220 593 241 572 269 572 273 572 280 573 282 574 278 542 250 502 218 481z" unicode="”"></glyph><glyph d="M128 677C83 644 47 588 47 527 47 478 77 451 110 451 139 451 163 475 163 504 163 534 142 555 114 555 110 555 103 554 101 554 105 586 133 626 165 647z" unicode="‘"></glyph><glyph d="M116 677C83 677 54 650 54 601 54 540 89 483 135 450l37 31C140 502 112 542 108 574 110 573 117 572 121 572 149 572 170 593 170 623 170 652 146 677 116 677z" unicode="‛"></glyph><glyph d="M94 450C140 483 176 540 176 601 176 650 146 677 113 677 83 677 60 652 60 623 60 593 80 572 108 572 113 572 120 573 122 574 118 542 89 502 57 481z" unicode="’"></glyph><glyph d="M94-127C140-94 176-37 176 24 176 72 146 100 113 100 83 100 60 75 60 46 60 16 80-5 108-5 113-5 120-4 122-3 118-36 89-75 57-96z" unicode="‚"></glyph><glyph d="M81 412l37 0C118 412 145 617 145 631 145 656 125 677 99 677 74 677 54 656 54 631 54 617 81 412 81 412z" unicode="'"></glyph><glyph d="M75 0l75 0 0 342C172 381 235 419 281 419 293 419 302 418 311 416l0 77C245 493 189 456 150 405l0 78-75 0z" unicode="r"></glyph><glyph d="M217 556l169 144-78 0-148-144M75 0l75 0 0 342C172 381 235 419 281 419 293 419 302 418 311 416l0 77C245 493 189 456 150 405l0 78-75 0z" unicode="ŕ"></glyph><glyph d="M369 0l58 0 266 667-59 0-235-589-127 317-206-79 18-50 155 61z" unicode="√"></glyph><glyph d="M155 556l72 0 95 144-51 0-80-106-83 106-51 0M75 0l75 0 0 342C172 381 235 419 281 419 293 419 302 418 311 416l0 77C245 493 189 456 150 405l0 78-75 0z" unicode="ř"></glyph><glyph d="M247 253C365 253 459 348 459 465 459 583 365 677 247 677 130 677 35 583 35 465 35 348 130 253 247 253M247 648C348 648 430 567 430 465 430 364 348 281 247 281 145 281 63 364 63 465 63 567 145 648 247 648M305 343l40 0-65 97C294 440 342 458 342 512 342 557 307 586 265 586l-99 0 0-243 32 0 0 96 44 0M265 558C290 558 309 539 309 512 309 487 290 468 265 468l-67 0 0 90z" unicode="®"></glyph><glyph d="M150 73C189 19 247-12 313-12 440-12 528 86 528 242 528 382 441 495 300 495 161 495 75 382 75 242l0-426 75 0M449 242C449 135 391 55 294 55 235 55 176 91 150 133l0 109C150 340 203 428 299 428 396 428 449 340 449 242z" unicode="ρ"></glyph><glyph d="M20 641C20 587 64 543 118 543 172 543 216 587 216 641 216 695 172 740 118 740 64 740 20 695 20 641M176 641C176 609 151 582 118 582 86 582 60 609 60 641 60 674 86 700 118 700 151 700 176 674 176 641z" unicode="˚"></glyph><glyph d="M33 64C82 12 149-12 228-12 353-12 418 53 418 134 418 241 321 265 237 284 174 299 119 314 119 361 119 404 160 434 226 434 288 434 341 408 370 373l35 52C366 464 308 495 226 495 111 495 46 431 46 356 46 256 139 234 221 215 286 199 345 182 345 129 345 82 305 49 231 49 165 49 104 81 72 118z" unicode="s"></glyph><glyph d="M252 556l169 144-78 0-148-144M33 64C82 12 149-12 228-12 353-12 418 53 418 134 418 241 321 265 237 284 174 299 119 314 119 361 119 404 160 434 226 434 288 434 341 408 370 373l35 52C366 464 308 495 226 495 111 495 46 431 46 356 46 256 139 234 221 215 286 199 345 182 345 129 345 82 305 49 231 49 165 49 104 81 72 118z" unicode="ś"></glyph><glyph d="M190 556l72 0 95 144-51 0-80-106-83 106-51 0M33 64C82 12 149-12 228-12 353-12 418 53 418 134 418 241 321 265 237 284 174 299 119 314 119 361 119 404 160 434 226 434 288 434 341 408 370 373l35 52C366 464 308 495 226 495 111 495 46 431 46 356 46 256 139 234 221 215 286 199 345 182 345 129 345 82 305 49 231 49 165 49 104 81 72 118z" unicode="š"></glyph><glyph d="M309 556l51 0-98 144-72 0-95-144 51 0 80 106M33 64C82 12 149-12 228-12 353-12 418 53 418 134 418 241 321 265 237 284 174 299 119 314 119 361 119 404 160 434 226 434 288 434 341 408 370 373l35 52C366 464 308 495 226 495 111 495 46 431 46 356 46 256 139 234 221 215 286 199 345 182 345 129 345 82 305 49 231 49 165 49 104 81 72 118z" unicode="ŝ"></glyph><glyph d="M326 187C387 214 418 259 418 315 418 421 323 444 240 463 176 478 119 491 119 541 119 590 164 621 228 621 280 621 336 602 370 561l34 45C372 643 316 677 226 677 112 677 46 615 46 541 46 475 91 440 161 418 101 402 46 361 46 290 46 193 136 171 217 150 284 133 345 117 345 61 345 6 297-26 228-26 157-26 102 10 72 46l-38-49C76-44 130-81 228-81 340-81 418-27 418 66 418 131 381 166 326 187M231 397C286 383 344 363 344 305 344 258 314 230 261 207 189 225 119 239 119 298 119 341 144 375 231 397z" unicode="§"></glyph><glyph d="M115 380C145 380 170 406 170 435 170 465 145 490 115 490 85 490 60 465 60 435 60 406 85 380 115 380M94-127C140-94 176-37 176 24 176 72 146 100 113 100 83 100 60 75 60 46 60 16 80-5 108-5 113-5 120-4 122-3 118-36 89-75 57-96z" unicode=";"></glyph><glyph d="M121 0l92 0 273 610 0 57-455 0 0-74 359 0z" unicode="7"></glyph><glyph d="M157 267l166 358 0 42-290 0 0-49 223 0-166-351M195 0l427 667-56 0-426-667M644-7C725-7 797 30 797 102 797 155 750 193 696 206 746 218 790 249 790 301 790 375 714 406 644 406 574 406 498 375 498 301 498 249 542 218 592 206 538 193 491 155 491 102 491 29 562-7 644-7M644 358C692 358 730 335 730 294 730 245 665 230 644 226 623 230 557 245 557 294 557 335 595 358 644 358M644 184C666 181 737 161 737 107 737 65 694 40 644 40 593 40 550 65 550 107 550 161 622 181 644 184z" unicode="⅞"></glyph><glyph d="M286-12C433-12 520 96 520 225 520 317 484 375 432 416l115 0 0 67-248 0C139 483 47 375 47 242 47 102 139-12 286-12M346 416C404 386 446 322 446 236 446 143 389 55 286 55 183 55 125 143 125 242 125 330 183 416 299 416z" unicode="σ"></glyph><glyph d="M51 332C51 151 122-12 308-12 454-12 542 90 542 206 542 348 444 419 324 419 238 419 164 361 135 315 134 324 134 332 134 341 134 472 193 603 322 603 392 603 431 575 465 535l42 62C466 644 408 677 322 677 135 677 51 513 51 332M458 203C458 139 408 62 305 62 189 62 145 164 137 247 174 306 238 347 304 347 390 347 458 301 458 203z" unicode="6"></glyph><glyph d="M0-20l59 0 237 707-59 0z" unicode="/"></glyph><glyph unicode=" "></glyph><glyph d="M472 101C458 83 421 61 377 61 349 61 329 70 308 80 285 91 262 102 229 102 211 102 191 98 177 93 218 122 253 164 253 225 253 240 251 255 247 268l121 0 0 54-150 0C211 331 204 341 196 350 167 385 137 421 137 479 137 559 204 607 280 607 341 607 390 567 407 525l67 40C437 636 363 677 272 677 150 677 48 590 48 480 48 412 84 370 118 330l7-8-106 0 0-54 145 0C173 250 179 231 179 208 179 148 131 93 46 55l30-62C118 15 159 33 194 33 230 33 252 22 275 11 300-1 326-13 373-13 436-13 480 7 508 34z" unicode="£"></glyph><glyph d="M154-16l232 314-229 295 364 0 0 74-466 0 0-74 230-296-231-313 0-74 467 0 0 74z" unicode="∑"></glyph><glyph d="M197-12C241-12 268 1 287 19l-22 56C255 64 235 55 214 55 181 55 165 81 165 117l0 300 98 0 0 66-98 0 0 132-75 0 0-132-80 0 0-66 80 0 0-316C90 29 126-12 197-12z" unicode="t"></glyph><glyph d="M186 101C186 29 222-12 293-12 337-12 364 1 383 19l-22 56C351 64 331 55 310 55 277 55 261 81 261 117l0 300 171 0 0 66-406 0 0-66 160 0z" unicode="τ"></glyph><glyph d="M265 75C255 64 235 55 214 55 181 55 165 81 165 117l0 109 70 0 0 48-70 0 0 143 98 0 0 66-98 0 0 132-75 0 0-132-80 0 0-66 80 0 0-143-80 0 0-48 80 0 0-125C90 29 126-12 197-12 241-12 268 1 287 19z" unicode="ŧ"></glyph><glyph d="M254 543C294 571 325 622 325 677 325 719 300 743 272 743 246 743 226 722 226 697 226 671 244 653 268 653 272 653 278 654 279 654 276 625 251 588 222 568M197-12C241-12 268 1 287 19l-22 56C255 64 235 55 214 55 181 55 165 81 165 117l0 300 98 0 0 66-98 0 0 132-75 0 0-132-80 0 0-66 80 0 0-316C90 29 126-12 197-12z" unicode="ť"></glyph><glyph d="M286 679C125 679 47 525 47 334 47 143 125-12 286-12 447-12 525 143 525 334 525 525 447 679 286 679M286 612C396 612 440 506 446 368l-320 0C132 506 177 612 286 612M286 55C176 55 132 162 126 302l320 0C440 162 396 55 286 55z" unicode="θ"></glyph><glyph d="M150 73C189 19 247-12 313-12 440-12 528 86 528 242 528 399 440 495 313 495 245 495 185 460 150 411l0 256-75 0 0-851 75 0M449 242C449 135 391 55 294 55 235 55 176 91 150 133l0 218C176 393 235 428 294 428 391 428 449 349 449 242z" unicode="þ"></glyph><glyph d="M29 98C70 38 153-12 266-12 413-12 502 69 502 180 502 287 409 339 348 344 411 355 492 403 492 499 492 612 394 677 266 677 163 677 86 632 38 574l46-52C133 575 187 603 260 603 341 603 409 563 409 489 409 412 338 379 254 379 227 379 196 379 185 380l0-76C195 305 226 305 254 305 352 305 420 270 420 187 420 110 361 62 264 62 185 62 117 98 78 150z" unicode="3"></glyph><glyph d="M192 260C285 260 343 308 343 376 343 440 285 470 247 473 286 480 336 508 336 566 336 632 277 673 192 673 126 673 78 646 47 611l31-36C108 608 143 624 187 624 236 624 276 601 276 560 276 513 234 496 178 496 162 496 146 496 139 497l0-50C145 448 161 448 179 448 237 448 283 430 283 379 283 336 248 309 190 309 144 309 101 330 74 363l-32-38C68 289 120 260 192 260M271 0l427 667-56 0-426-667M720-7C801-7 873 30 873 102 873 155 826 193 772 206 822 218 866 249 866 301 866 375 790 406 720 406 650 406 574 375 574 301 574 249 618 218 668 206 614 193 567 155 567 102 567 29 638-7 720-7M720 358C768 358 806 335 806 294 806 245 741 230 720 226 699 230 633 245 633 294 633 335 671 358 720 358M720 184C742 181 813 161 813 107 813 65 770 40 720 40 669 40 626 65 626 107 626 161 698 181 720 184z" unicode="⅜"></glyph><glyph d="M192 260C285 260 343 308 343 376 343 440 285 470 247 473 286 480 336 508 336 566 336 632 277 673 192 673 126 673 78 646 47 611l31-36C108 608 143 624 187 624 236 624 276 601 276 560 276 513 234 496 178 496 162 496 146 496 139 497l0-50C145 448 161 448 179 448 237 448 283 430 283 379 283 336 248 309 190 309 144 309 101 330 74 363l-32-38C68 289 120 260 192 260M271 0l427 667-56 0-426-667M770 100l58 0 0 49-58 0 0 251-83 0-172-256 0-44 196 0 0-100 59 0M711 347l0-198-136 0z" unicode="¾"></glyph><glyph d="M140 607C157 582 176 554 216 554 279 554 313 610 313 688l-45 0C268 628 247 602 220 602 198 602 186 621 172 641 155 666 137 694 97 694 34 694 0 638 0 560l45 0C45 620 66 646 93 646 115 646 127 627 140 607z" unicode="˜"></glyph><glyph d="M14 574l38 0 57 200-76 0z" unicode="΄"></glyph><glyph d="M107 641l62 0 0 26-152 0 0-26 62 0 0-194 28 0M391 447l28 0 0 220-43 0-64-160-64 160-43 0 0-220 28 0 0 182 75-182 8 0 75 182z" unicode="™"></glyph><glyph d="M307-25l310 535-619 0z" unicode="▼"></glyph><glyph d="M-2 30l619-1-310 536z" unicode="▲"></glyph><glyph d="M54 0l458 0 0 74-327 0C371 221 509 345 509 481 509 614 396 677 285 677 191 677 104 639 53 572l51-53C143 569 205 603 285 603 354 603 424 566 424 481 424 366 294 255 54 66z" unicode="2"></glyph><glyph d="M401 0l75 0 0 483-75 0 0-355C373 89 317 55 258 55 193 55 150 80 150 165l0 318-75 0 0-341C75 37 128-12 229-12 301-12 364 26 401 68z" unicode="u"></glyph><glyph d="M301 556l169 144-78 0-148-144M401 0l75 0 0 483-75 0 0-355C373 89 317 55 258 55 193 55 150 80 150 165l0 318-75 0 0-341C75 37 128-12 229-12 301-12 364 26 401 68z" unicode="ú"></glyph><glyph d="M275 550C347 550 410 584 450 638l-37 32C382 625 333 598 275 598 216 598 168 626 136 670l-37-32C140 584 204 550 275 550M401 0l75 0 0 483-75 0 0-355C373 89 317 55 258 55 193 55 150 80 150 165l0 318-75 0 0-341C75 37 128-12 229-12 301-12 364 26 401 68z" unicode="ŭ"></glyph><glyph d="M358 556l51 0-98 144-72 0-95-144 51 0 80 106M401 0l75 0 0 483-75 0 0-355C373 89 317 55 258 55 193 55 150 80 150 165l0 318-75 0 0-341C75 37 128-12 229-12 301-12 364 26 401 68z" unicode="û"></glyph><glyph d="M172 566C198 566 218 587 218 613 218 638 198 659 172 659 147 659 126 638 126 613 126 587 147 566 172 566M379 566C404 566 425 587 425 613 425 638 404 659 379 659 353 659 332 638 332 613 332 587 353 566 379 566M401 0l75 0 0 483-75 0 0-355C373 89 317 55 258 55 193 55 150 80 150 165l0 318-75 0 0-341C75 37 128-12 229-12 301-12 364 26 401 68z" unicode="ü"></glyph><glyph d="M247 556l57 0-148 144-78 0M401 0l75 0 0 483-75 0 0-355C373 89 317 55 258 55 193 55 150 80 150 165l0 318-75 0 0-341C75 37 128-12 229-12 301-12 364 26 401 68z" unicode="ù"></glyph><glyph d="M570 536C570 576 546 599 519 599 495 599 476 579 476 556 476 532 493 515 516 515l11 1C525 487 504 456 476 435l0 48-75 0 0-355C373 89 317 55 258 55 193 55 150 80 150 165l0 318-75 0 0-341C75 37 128-12 229-12 301-12 364 26 401 68l0-68 75 0 0 393C534 424 570 479 570 536z" unicode="ư"></glyph><glyph d="M225 556l115 144-69 0-94-144M367 556l115 144-69 0-94-144M401 0l75 0 0 483-75 0 0-355C373 89 317 55 258 55 193 55 150 80 150 165l0 318-75 0 0-341C75 37 128-12 229-12 301-12 364 26 401 68z" unicode="ű"></glyph><glyph d="M121 572l307 0 0 48-307 0M401 0l75 0 0 483-75 0 0-355C373 89 317 55 258 55 193 55 150 80 150 165l0 318-75 0 0-341C75 37 128-12 229-12 301-12 364 26 401 68z" unicode="ū"></glyph><glyph d="M-3-95l570 0 0 55-570 0z" unicode="_"></glyph><glyph unicode=" "></glyph><glyph d="M30 209l240 0 0 66-240 0z" unicode="­"></glyph><glyph d="M50 421l291 0 0 49-203 0C256 555 339 628 339 709 339 790 269 827 196 827 139 827 82 806 49 764l33-38C103 754 144 778 194 778 237 778 279 756 279 705 279 640 203 575 50 466z" unicode="²"></glyph><glyph d="M192 414C285 414 343 462 343 530 343 594 285 624 247 627 286 634 336 662 336 720 336 786 277 827 192 827 126 827 78 800 47 765l31-36C108 762 143 778 187 778 236 778 276 755 276 714 276 667 234 650 178 650 162 650 146 650 139 651l0-50C145 602 161 602 179 602 237 602 283 584 283 533 283 490 248 463 190 463 144 463 101 484 74 517l-32-38C68 443 120 414 192 414z" unicode="³"></glyph><glyph d="M150-184l0 220C164 10 194-12 251-12 313-12 370 27 404 74 414 21 445-12 508-12 522-12 537-10 548-8l-6 65C538 56 530 55 523 55 492 55 476 78 476 113l0 370-75 0 0-355C373 89 317 53 260 53 193 53 150 85 150 165l0 318-75 0 0-667z" unicode="µ"></glyph><glyph d="M115 421l60 0 0 400-53 0-108-110 35-37 66 69z" unicode="¹"></glyph><glyph d="M51 333C51 126 204-13 394-13 503-13 594 33 656 102l0 241-312 0 0-74 229 0 0-136C540 100 474 61 394 61 248 61 137 175 137 333 137 492 248 604 394 604 474 604 545 566 587 512l66 41C594 626 512 678 394 678 204 678 51 540 51 333M376-272C415-243 447-192 447-138 447-95 422-71 394-71 368-71 348-92 348-118 348-143 366-162 390-162 393-162 400-161 401-160 398-189 373-226 343-246z" unicode="Ģ"></glyph><glyph d="M307 761C269 734 238 680 238 620 238 579 263 560 286 560 313 560 334 582 334 606 334 631 310 651 288 651 285 651 283 650 283 650 285 680 312 715 340 734M74-124C131-180 187-196 269-196 387-196 499-146 499 14l0 469-75 0 0-73C385 463 327 495 262 495 135 495 47 399 47 244 47 88 136-6 262-6 330-6 389 31 424 80l0-69C424-95 349-134 269-134 200-134 152-116 112-68M424 139C398 97 340 60 280 60 183 60 125 138 125 244 125 351 183 428 280 428 340 428 398 392 424 350z" unicode="ģ"></glyph><glyph d="M481 0l103 0-302 350 278 317-104 0-295-345 0 345-83 0 0-667 83 0 0 224 67 76M292-272C331-243 363-192 363-138 363-95 338-71 310-71 284-71 264-92 264-118 264-143 282-162 306-162 309-162 316-161 317-160 314-189 289-226 259-246z" unicode="Ķ"></glyph><glyph d="M404 0l96 0-215 264 214 219-95 0-254-257 0 441-75 0 0-667 75 0 0 138 80 79M243-272C282-243 314-192 314-138 314-95 289-71 261-71 235-71 215-92 215-118 215-143 233-162 257-162 260-162 267-161 268-160 265-189 240-226 210-246z" unicode="ķ"></glyph><glyph d="M78 0l393 0 0 74-310 0 0 593-83 0M257-272C296-243 328-192 328-138 328-95 303-71 275-71 249-71 229-92 229-118 229-143 247-162 271-162 274-162 281-161 282-160 279-189 254-226 224-246z" unicode="Ļ"></glyph><glyph d="M75 0l75 0 0 667-75 0M95-272C134-243 166-192 166-138 166-95 141-71 113-71 87-71 67-92 67-118 67-143 85-162 109-162 112-162 119-161 120-160 117-189 92-226 62-246z" unicode="ļ"></glyph><glyph d="M550 0l80 0 0 667-83 0 0-527-384 527-85 0 0-667 83 0 0 538M331-272C370-243 402-192 402-138 402-95 377-71 349-71 323-71 303-92 303-118 303-143 321-162 345-162 348-162 355-161 356-160 353-189 328-226 298-246z" unicode="Ņ"></glyph><glyph d="M401 0l75 0 0 339C476 444 423 495 322 495 250 495 184 453 150 413l0 70-75 0 0-483 75 0 0 353C178 392 234 428 293 428 358 428 401 401 401 316M258-272C297-243 329-192 329-138 329-95 304-71 276-71 250-71 230-92 230-118 230-143 248-162 272-162 275-162 282-161 283-160 280-189 255-226 225-246z" unicode="ņ"></glyph><glyph d="M464 0l98 0-180 272C473 280 555 346 555 466 555 589 468 667 346 667l-268 0 0-667 83 0 0 265 133 0M469 466C469 391 415 338 336 338l-175 0 0 255 175 0C415 593 469 541 469 466M288-272C327-243 359-192 359-138 359-95 334-71 306-71 280-71 260-92 260-118 260-143 278-162 302-162 305-162 312-161 313-160 310-189 285-226 255-246z" unicode="Ŗ"></glyph><glyph d="M75 0l75 0 0 342C172 381 235 419 281 419 293 419 302 418 311 416l0 77C245 493 189 456 150 405l0 78-75 0M96-272C135-243 167-192 167-138 167-95 142-71 114-71 88-71 68-92 68-118 68-143 86-162 110-162 113-162 120-161 121-160 118-189 93-226 63-246z" unicode="ŗ"></glyph><glyph d="M540 184C540 324 416 358 307 387 222 410 145 430 145 497 145 560 202 603 282 603 355 603 425 578 475 523l50 61C469 643 390 677 288 677 157 677 59 602 59 492 59 361 178 331 285 303 373 279 454 257 454 177 454 126 416 62 297 62 203 62 131 108 87 157l-49-63C88 37 164-5 266-11l-23-62 33-19C285-82 300-75 314-75 339-75 351-89 351-108 351-137 322-152 290-152 263-152 234-143 210-123l-19-38C211-177 249-191 292-191 349-191 396-160 396-109 396-70 368-44 330-44 317-44 303-48 293-55l17 43C478-6 540 90 540 184z" unicode="Ş"></glyph><glyph d="M418 134C418 241 321 265 237 284 174 299 119 314 119 361 119 404 160 434 226 434 288 434 341 408 370 373l35 52C366 464 308 495 226 495 111 495 46 431 46 356 46 256 139 234 221 215 286 199 345 182 345 129 345 82 305 49 231 49 165 49 104 81 72 118l-39-54C77 18 134-6 203-11l-23-62 33-19C222-82 237-75 251-75 276-75 288-89 288-108 288-137 259-152 227-152 200-152 171-143 147-123l-19-38C148-177 186-191 229-191 286-191 333-160 333-109 333-70 305-44 267-44 254-44 240-48 230-55l17 44C360-5 418 57 418 134z" unicode="ş"></glyph><glyph d="M243 0l83 0 0 593 212 0 0 74-506 0 0-74 211 0M268-272C307-243 339-192 339-138 339-95 314-71 286-71 260-71 240-92 240-118 240-143 258-162 282-162 285-162 292-161 293-160 290-189 265-226 235-246z" unicode="Ţ"></glyph><glyph d="M197-12C241-12 268 1 287 19l-22 56C255 64 235 55 214 55 181 55 165 81 165 117l0 300 98 0 0 66-98 0 0 132-75 0 0-132-80 0 0-66 80 0 0-316C90 29 126-12 197-12M132-272C171-243 203-192 203-138 203-95 178-71 150-71 124-71 104-92 104-118 104-143 122-162 146-162 149-162 156-161 157-160 154-189 129-226 99-246z" unicode="ţ"></glyph><glyph d="M353 678C234 678 152 626 94 553l66-41C202 566 272 604 353 604 491 604 599 504 609 357l-570 0C39 134 160-13 366-13 550-13 696 126 696 333 696 540 543 678 353 678M360 61C223 61 142 159 129 283l476 0C586 151 489 61 360 61z" unicode="Ə"></glyph><glyph d="M25-161l84 0 92 415 154 0 0 68-139 0 42 189C271 569 310 603 358 603 380 603 396 595 408 580l37 61C419 668 389 677 351 677 265 677 197 619 177 526l-46-204-82 0 0-68 68 0z" unicode="ƒ"></glyph><glyph d="M38 94C93 32 178-12 294-12 474-12 540 87 540 184 540 324 416 358 307 387 222 410 145 430 145 497 145 560 202 603 282 603 355 603 425 578 475 523l50 61C469 643 390 677 288 677 157 677 59 602 59 492 59 361 178 331 285 303 373 279 454 257 454 177 454 126 416 62 297 62 203 62 131 108 87 157M271-272C310-243 342-192 342-138 342-95 317-71 289-71 263-71 243-92 243-118 243-143 261-162 285-162 288-162 295-161 296-160 293-189 268-226 238-246z" unicode="Ș"></glyph><glyph d="M33 64C82 12 149-12 228-12 353-12 418 53 418 134 418 241 321 265 237 284 174 299 119 314 119 361 119 404 160 434 226 434 288 434 341 408 370 373l35 52C366 464 308 495 226 495 111 495 46 431 46 356 46 256 139 234 221 215 286 199 345 182 345 129 345 82 305 49 231 49 165 49 104 81 72 118M208-272C247-243 279-192 279-138 279-95 254-71 226-71 200-71 180-92 180-118 180-143 198-162 222-162 225-162 232-161 233-160 230-189 205-226 175-246z" unicode="ș"></glyph><glyph d="M243 0l83 0 0 593 212 0 0 74-506 0 0-74 211 0M268-272C307-243 339-192 339-138 339-95 314-71 286-71 260-71 240-92 240-118 240-143 258-162 282-162 285-162 292-161 293-160 290-189 265-226 235-246z" unicode="Ț"></glyph><glyph d="M197-12C241-12 268 1 287 19l-22 56C255 64 235 55 214 55 181 55 165 81 165 117l0 300 98 0 0 66-98 0 0 132-75 0 0-132-80 0 0-66 80 0 0-316C90 29 126-12 197-12M132-272C171-243 203-192 203-138 203-95 178-71 150-71 124-71 104-92 104-118 104-143 122-162 146-162 149-162 156-161 157-160 154-189 129-226 99-246z" unicode="ț"></glyph><glyph d="M-46-189C-30-194-13-196 8-196 99-196 150-142 150-47l0 530-75 0 0-530C75-108 44-131 0-131-12-131-26-130-36-126z" unicode="ȷ"></glyph><glyph d="M516 241C516 392 412 495 269 495 191 495 126 469 77 421l36-49C152 411 207 433 263 433 366 433 430 357 436 266l-390 0 0-19C46 102 132-12 278-12 416-12 516 101 516 241M278 50C169 50 121 139 120 211l317 0C433 137 382 50 278 50z" unicode="ə"></glyph><glyph d="M280 326l58 0 0 215C338 614 302 648 233 648 183 648 140 621 117 595l0 165-57 0 0-434 57 0 0 228C136 577 171 600 209 600 252 600 280 583 280 528z" unicode="ʰ"></glyph><glyph d="M94 450C140 483 176 540 176 601 176 650 146 677 113 677 83 677 60 652 60 623 60 593 80 572 108 572 113 572 120 573 122 574 118 542 89 502 57 481z" unicode="ʼ"></glyph><glyph d="M28 591l307 0 0 48-307 0z" unicode="ˉ"></glyph><glyph d="M169 556l57 0-148 144-78 0z" unicode="ˋ"></glyph><glyph d="M-187 646l42-13C-136 659-119 675-92 675-65 675-46 659-46 625-46 602-54 580-75 557l51 0C-8 580 0 599 0 626 0 689-44 716-92 716-141 716-174 685-187 646z" unicode="̉"></glyph><glyph d="M115 380C145 380 170 406 170 435 170 465 145 490 115 490 85 490 60 465 60 435 60 406 85 380 115 380M94-127C140-94 176-37 176 24 176 72 146 100 113 100 83 100 60 75 60 46 60 16 80-5 108-5 113-5 120-4 122-3 118-36 89-75 57-96z" unicode=";"></glyph><glyph d="M9 0l640 0-269 667-103 0M329 581l201-507-402 0z" unicode="Δ"></glyph><glyph d="M204 74l-135 0 0-74 240 0 0 74C222 96 137 187 137 334 137 481 223 603 382 603 541 603 627 481 627 334 627 187 543 96 456 74l0-74 240 0 0 74-134 0C649 127 713 217 713 348 713 540 580 678 382 678 185 678 51 540 51 348 51 217 116 127 204 74z" unicode="Ω"></glyph><glyph d="M150-184l0 220C164 10 194-12 251-12 313-12 370 27 404 74 414 21 445-12 508-12 522-12 537-10 548-8l-6 65C538 56 530 55 523 55 492 55 476 78 476 113l0 370-75 0 0-355C373 89 317 53 260 53 193 53 150 85 150 165l0 318-75 0 0-667z" unicode="μ"></glyph><glyph d="M47 242C47 84 154 0 316 0 354 0 375-8 375-36 375-67 351-123 329-157l78 0C434-108 450-56 450-22 450 41 408 67 320 67 206 67 125 117 125 242 125 349 189 428 292 428 342 428 383 409 415 365l50 46C428 459 376 495 288 495 144 495 47 385 47 242z" unicode="ς"></glyph><glyph d="M199 733C225 733 245 754 245 780 245 805 225 826 199 826 174 826 153 805 153 780 153 754 174 733 199 733M406 733C431 733 452 754 452 780 452 805 431 826 406 826 380 826 359 805 359 780 359 754 380 733 406 733M78 0l437 0 0 74-354 0 0 230 347 0 0 74-347 0 0 215 354 0 0 74-437 0z" unicode="Ё"></glyph><glyph d="M501 62l0-74C620-12 718 34 718 189l0 22C718 346 656 414 512 414 433 414 370 395 326 376l0 217 212 0 0 74-506 0 0-74 211 0 0-593 83 0 0 309C369 329 428 340 489 340 595 340 635 296 635 211l0-22C635 96 584 62 501 62z" unicode="Ђ"></glyph><glyph d="M327 723l169 144-90 0-148-144M78 0l83 0 0 593 354 0 0 74-437 0z" unicode="Ѓ"></glyph><glyph d="M394 62C258 62 151 161 139 304l382 0 0 74-380 0C159 513 262 604 394 604 470 604 539 563 577 507l70 39C594 621 512 678 394 678 202 678 51 538 51 333 51 128 202-12 394-12 512-12 592 44 648 120l-71 39C539 102 470 62 394 62z" unicode="Є"></glyph><glyph d="M38 94C93 32 178-12 294-12 474-12 540 87 540 184 540 324 416 358 307 387 222 410 145 430 145 497 145 560 202 603 282 603 355 603 425 578 475 523l50 61C469 643 390 677 288 677 157 677 59 602 59 492 59 361 178 331 285 303 373 279 454 257 454 177 454 126 416 62 297 62 203 62 131 108 87 157z" unicode="Ѕ"></glyph><glyph d="M78 0l83 0 0 667-83 0z" unicode="І"></glyph><glyph d="M16 733C42 733 62 754 62 780 62 805 42 826 16 826-9 826-30 805-30 780-30 754-9 733 16 733M223 733C248 733 269 754 269 780 269 805 248 826 223 826 197 826 176 805 176 780 176 754 197 733 223 733M78 0l83 0 0 667-83 0z" unicode="Ї"></glyph><glyph d="M11 65C57 11 114-12 185-12 304-12 397 56 397 201l0 466-83 0 0-465C314 119 262 62 180 62 122 62 83 93 54 128z" unicode="Ј"></glyph><glyph d="M32 69l0-81C151-12 246 33 286 472l11 121 254 0 0-593 268 0C953 0 1028 92 1028 201 1028 310 951 402 819 402l-185 0 0 265-408 0-17-192C176 123 112 69 32 69M634 328l175 0C888 328 942 276 942 201 942 126 888 74 809 74l-175 0z" unicode="Љ"></glyph><glyph d="M78 667l0-667 83 0 0 306 390 0 0-306 280 0C957 0 1028 87 1028 190 1028 293 956 380 831 380l-197 0 0 287-83 0 0-287-390 0 0 287M821 74l-187 0 0 232 187 0C893 306 942 258 942 190 942 121 893 74 821 74z" unicode="Њ"></glyph><glyph d="M635 186l0-186 83 0 0 185C718 349 656 414 512 414 433 414 370 395 326 376l0 217 212 0 0 74-506 0 0-74 211 0 0-593 83 0 0 309C369 329 428 340 489 340 595 340 635 300 635 186z" unicode="Ћ"></glyph><glyph d="M336 723l169 144-90 0-148-144M481 0l103 0-302 350 278 317-104 0-295-345 0 345-83 0 0-667 83 0 0 224 67 76z" unicode="Ќ"></glyph><glyph d="M312 717C379 717 437 748 474 799l-43 35C404 796 362 772 312 772 262 772 220 796 192 834l-43-35C187 748 246 717 312 717M523 667l-190-413-228 413-96 0 281-490-11-20C243 88 218 62 166 62 147 62 130 67 116 74l-22-71C114-6 144-12 169-12 264-12 311 37 350 118l267 549z" unicode="Ў"></glyph><glyph d="M618 667l-83 0 0-593-374 0 0 593-83 0 0-667 233 0 0-127 74 0 0 127 233 0z" unicode="Џ"></glyph><glyph d="M557 0l92 0-269 667-103 0-268-667 92 0 59 148 338 0M329 593l144-371-289 0z" unicode="А"></glyph><glyph d="M511 667l-433 0 0-667 268 0C480 0 555 92 555 201 555 310 478 402 346 402l-185 0 0 191 350 0M161 328l175 0C415 328 469 276 469 201 469 126 415 74 336 74l-175 0z" unicode="Б"></glyph><glyph d="M78 0l304 0C504 0 575 73 575 180 575 260 516 333 445 344 506 357 562 413 562 497 562 597 491 667 375 667l-297 0M161 378l0 215 200 0C436 593 476 545 476 485 476 424 436 378 361 378M161 74l0 230 204 0C447 304 489 250 489 189 489 118 443 74 365 74z" unicode="В"></glyph><glyph d="M78 0l83 0 0 593 354 0 0 74-437 0z" unicode="Г"></glyph><glyph d="M26 74l0-197 74 0 0 123 515 0 0-123 74 0 0 197-77 0 0 593-396 0-18-168C167 217 119 115 78 74M273 494l10 99 246 0 0-519-362 0C204 118 244 217 273 494z" unicode="Д"></glyph><glyph d="M78 0l437 0 0 74-354 0 0 230 347 0 0 74-347 0 0 215 354 0 0 74-437 0z" unicode="Е"></glyph><glyph d="M791 0l102 0-290 346 266 321-101 0-233-291-39 0 0 291-83 0 0-291-38 0-233 291-101 0 265-321-289-346 101 0 254 310 41 0 0-310 83 0 0 310 41 0z" unicode="Ж"></glyph><glyph d="M29 98C71 38 163-12 280-12 430-12 530 69 530 180 530 287 437 339 376 344 438 355 520 403 520 499 520 612 412 677 281 677 175 677 90 632 40 574l46-52C136 575 199 603 275 603 363 603 435 563 435 489 435 412 362 379 273 379l-116 0 0-74 116 0C375 305 446 270 446 187 446 110 383 62 278 62 196 62 118 99 78 151z" unicode="З"></glyph><glyph d="M78 667l0-667 80 0 389 549 0-549 83 0 0 667-85 0-384-539 0 539z" unicode="И"></glyph><glyph d="M354 717C421 717 479 748 516 799l-43 35C446 796 404 772 354 772 304 772 262 796 234 834l-43-35C229 748 288 717 354 717M78 667l0-667 80 0 389 549 0-549 83 0 0 667-85 0-384-539 0 539z" unicode="Й"></glyph><glyph d="M481 0l103 0-302 350 278 317-104 0-295-345 0 345-83 0 0-667 83 0 0 224 67 76z" unicode="К"></glyph><glyph d="M32 69l0-81C151-12 246 33 286 472l11 121 254 0 0-593 83 0 0 667-408 0-17-192C176 123 112 69 32 69z" unicode="Л"></glyph><glyph d="M648 0l83 0 0 667-119 0-208-508-207 508-119 0 0-667 83 0 0 555 226-555 34 0 227 555z" unicode="М"></glyph><glyph d="M551 0l83 0 0 667-83 0 0-287-390 0 0 287-83 0 0-667 83 0 0 306 390 0z" unicode="Н"></glyph><glyph d="M51 333C51 136 184-12 382-12 579-12 713 136 713 333 713 530 579 678 382 678 184 678 51 530 51 333M627 333C627 178 531 62 382 62 232 62 137 178 137 333 137 489 232 604 382 604 531 604 627 489 627 333z" unicode="О"></glyph><glyph d="M551 0l83 0 0 667-556 0 0-667 83 0 0 593 390 0z" unicode="П"></glyph><glyph d="M78 0l83 0 0 265 185 0C478 265 555 357 555 466 555 575 480 667 346 667l-268 0M469 466C469 391 415 339 336 339l-175 0 0 254 175 0C415 593 469 541 469 466z" unicode="Р"></glyph><glyph d="M391-12C512-12 592 44 648 120l-71 39C539 102 470 62 391 62 248 62 137 175 137 333 137 492 248 604 391 604 470 604 539 563 577 507l70 39C594 621 512 678 391 678 202 678 51 538 51 333 51 128 202-12 391-12z" unicode="С"></glyph><glyph d="M243 0l83 0 0 593 212 0 0 74-506 0 0-74 211 0z" unicode="Т"></glyph><glyph d="M523 667l-190-413-228 413-96 0 281-490-11-20C243 88 218 62 166 62 147 62 130 67 116 74l-22-71C114-6 144-12 169-12 264-12 311 37 350 118l267 549z" unicode="У"></glyph><glyph d="M755 333C755 483 637 588 444 601l0 66-83 0 0-66C168 588 51 482 51 333 51 183 168 78 361 65l0-65 83 0 0 65C637 78 755 182 755 333M137 333C137 440 219 515 361 526l0-386C219 151 137 227 137 333M444 140l0 386C585 515 669 440 669 333 669 227 585 151 444 140z" unicode="Ф"></glyph><glyph d="M539 0l100 0-259 343 244 324-101 0-197-267-198 267-101 0 245-325-260-342 101 0 213 284z" unicode="Х"></glyph><glyph d="M621 0l0-123 74 0 0 197-77 0 0 593-83 0 0-593-374 0 0 593-83 0 0-667z" unicode="Ц"></glyph><glyph d="M141 481l0 186-83 0 0-185C58 318 120 253 264 253 343 253 406 272 450 291l0-291 83 0 0 667-83 0 0-309C407 338 348 327 287 327 181 327 141 367 141 481z" unicode="Ч"></glyph><glyph d="M880 667l-83 0 0-593-276 0 0 593-83 0 0-593-277 0 0 593-83 0 0-667 802 0z" unicode="Ш"></glyph><glyph d="M880 667l-83 0 0-593-276 0 0 593-83 0 0-593-277 0 0 593-83 0 0-667 805 0 0-123 74 0 0 197-77 0z" unicode="Щ"></glyph><glyph d="M243 0l268 0C645 0 720 92 720 201 720 310 644 402 511 402l-185 0 0 265-294 0 0-74 211 0M326 328l175 0C580 328 634 276 634 201 634 126 580 74 501 74l-175 0z" unicode="Ъ"></glyph><glyph d="M161 667l-83 0 0-667 268 0C480 0 555 92 555 201 555 310 478 402 346 402l-185 0M627 0l83 0 0 667-83 0M161 328l175 0C415 328 469 276 469 201 469 126 415 74 336 74l-175 0z" unicode="Ы"></glyph><glyph d="M161 667l-83 0 0-667 268 0C480 0 555 92 555 201 555 310 478 402 346 402l-185 0M161 328l175 0C415 328 469 276 469 201 469 126 415 74 336 74l-175 0z" unicode="Ь"></glyph><glyph d="M282 678C164 678 82 621 29 546l70-39C137 563 206 604 282 604 414 604 517 513 535 378l-380 0 0-74 382 0C525 161 418 62 282 62 206 62 137 102 99 159l-71-39C84 44 164-12 282-12 474-12 625 128 625 333 625 538 474 678 282 678z" unicode="Э"></glyph><glyph d="M609 678C427 678 300 552 281 380l-120 0 0 287-83 0 0-667 83 0 0 306 118 0C291 123 421-12 609-12 806-12 941 136 941 333 941 530 806 678 609 678M609 62C459 62 364 178 364 333 364 489 459 604 609 604 758 604 855 489 855 333 855 178 758 62 609 62z" unicode="Ю"></glyph><glyph d="M47 0l97 0 170 265 134 0 0-265 83 0 0 667-268 0C140 667 53 589 53 466 53 346 136 280 227 272M448 338l-176 0C194 338 139 391 139 466 139 541 194 593 272 593l176 0z" unicode="Я"></glyph><glyph d="M377 0l75 0 0 332C452 449 367 495 265 495 186 495 124 469 72 415l35-52C150 409 197 430 255 430 325 430 377 393 377 328l0-87C338 286 283 307 217 307 135 307 48 256 48 148 48 43 135-12 217-12 282-12 337 11 377 55M377 102C348 62 297 42 244 42 174 42 125 86 125 147 125 209 174 253 244 253 297 253 348 233 377 193z" unicode="а"></glyph><glyph d="M47 280C47 104 138-12 286-12 435-12 524 104 524 243 524 374 435 483 298 483 212 483 145 437 108 374 126 479 187 561 354 590l124 21 0 67-126-20C130 622 47 499 47 280M446 243C446 143 389 55 286 55 183 55 125 143 125 243 125 340 183 428 286 428 389 428 446 340 446 243z" unicode="б"></glyph><glyph d="M75 0l249 0C432 0 487 53 487 131 487 186 448 237 397 249 440 262 477 301 477 359 477 432 423 483 322 483l-247 0M400 348C400 310 373 281 322 281l-172 0 0 136 172 0C372 417 400 390 400 348M409 140C409 94 377 66 324 66l-174 0 0 149 174 0C380 215 409 179 409 140z" unicode="в"></glyph><glyph d="M413 417l0 66-338 0 0-483 75 0 0 417z" unicode="г"></glyph><glyph d="M18 66l0-189 66 0 0 123 383 0 0-123 66 0 0 189-56 0 0 417-332 0-10-111C116 175 86 103 61 66M201 353l6 64 195 0 0-351-268 0C155 95 185 163 201 353z" unicode="д"></glyph><glyph d="M47 242C47 91 150-12 293-12 372-12 437 14 485 62l-36 49C411 72 355 50 300 50 196 50 132 126 126 217l391 0 0 19C517 381 431 495 285 495 147 495 47 382 47 242M284 433C394 433 442 344 443 272l-317 0C130 346 181 433 284 433z" unicode="е"></glyph><glyph d="M603 0l93 0-206 247 205 236-92 0-180-211-31 0 0 211-75 0 0-211-32 0-180 211-91 0 204-236-206-247 94 0 179 217 32 0 0-217 75 0 0 217 31 0z" unicode="ж"></glyph><glyph d="M30 66C76 18 143-12 233-12 365-12 439 48 439 129 439 209 362 243 311 247 363 254 429 293 429 365 429 447 347 495 227 494 142 494 82 462 39 415l40-46C117 412 164 433 230 433 300 433 351 402 351 356 351 301 299 275 225 275l-83 0 0-61 83 0C305 214 360 194 360 134 360 83 312 50 233 50 167 50 115 75 73 118z" unicode="з"></glyph><glyph d="M75 0l72 0 255 376 0-376 75 0 0 483-74 0-253-369 0 369-75 0z" unicode="и"></glyph><glyph d="M276 550C343 550 401 581 438 632l-43 35C368 629 326 605 276 605 226 605 184 629 156 667l-43-35C151 581 210 550 276 550M75 0l72 0 255 376 0-376 75 0 0 483-74 0-253-369 0 369-75 0z" unicode="й"></glyph><glyph d="M404 0l96 0-215 264 214 219-95 0-254-257 0 257-75 0 0-483 75 0 0 138 80 79z" unicode="к"></glyph><glyph d="M18 61l0-73C111-12 177 55 202 365l5 52 195 0 0-417 75 0 0 483-335 0-10-114C110 121 69 61 18 61z" unicode="л"></glyph><glyph d="M521 0l75 0 0 483-100 0-160-365-162 365-99 0 0-483 75 0 0 385 172-385 28 0 171 385z" unicode="м"></glyph><glyph d="M75 0l75 0 0 216 252 0 0-216 75 0 0 483-75 0 0-201-252 0 0 201-75 0z" unicode="н"></glyph><glyph d="M286-12C433-12 525 102 525 242 525 382 433 495 286 495 139 495 47 382 47 242 47 102 139-12 286-12M286 55C183 55 125 143 125 242 125 340 183 428 286 428 389 428 446 340 446 242 446 143 389 55 286 55z" unicode="о"></glyph><glyph d="M402 0l75 0 0 483-402 0 0-483 75 0 0 417 252 0z" unicode="п"></glyph><glyph d="M150-184l0 257C189 19 247-12 313-12 440-12 528 86 528 242 528 399 440 495 313 495 245 495 185 460 150 411l0 72-75 0 0-667M449 242C449 135 391 55 294 55 235 55 176 91 150 133l0 218C176 393 235 428 294 428 391 428 449 349 449 242z" unicode="р"></glyph><glyph d="M47 242C47 98 144-12 288-12 376-12 428 24 465 72l-50 46C383 75 342 55 292 55 189 55 125 135 125 242 125 349 189 428 292 428 342 428 383 409 415 365l50 46C428 459 376 495 288 495 144 495 47 385 47 242z" unicode="с"></glyph><glyph d="M163 0l75 0 0 417 141 0 0 66-356 0 0-66 140 0z" unicode="т"></glyph><glyph d="M60-121l-12-68C62-193 87-196 103-196 167-195 216-168 245-98l242 581-82 0-160-396-161 396-81 0 202-488-32-73C156-118 134-129 101-129 89-129 71-126 60-121z" unicode="у"></glyph><glyph d="M379 495l0 172-75 0 0-172C140 487 47 390 47 242 47 96 140-4 304-12l0-172 75 0 0 172C543-4 636 96 636 242 636 390 543 487 379 495M125 242C125 352 190 426 304 428l0-373C190 57 125 132 125 242M379 55l0 373C493 426 558 352 558 242 558 132 493 57 379 55z" unicode="ф"></glyph><glyph d="M388 0l87 0-186 248 175 235-87 0-134-184-134 184-87 0 175-235-185-248 86 0 145 198z" unicode="х"></glyph><glyph d="M458 0l0-123 66 0 0 189-56 0 0 417-75 0 0-417-243 0 0 417-75 0 0-483z" unicode="ц"></glyph><glyph d="M140 483l-75 0 0-159C65 214 118 165 244 165 299 165 355 179 391 197l0-197 75 0 0 483-75 0 0-225C362 243 313 231 263 231 183 231 140 256 140 346z" unicode="ч"></glyph><glyph d="M708 483l-75 0 0-417-204 0 0 417-75 0 0-417-204 0 0 417-75 0 0-483 633 0z" unicode="ш"></glyph><glyph d="M708 483l-75 0 0-417-204 0 0 417-75 0 0-417-204 0 0 417-75 0 0-483 629 0 0-123 66 0 0 189-62 0z" unicode="щ"></glyph><glyph d="M163 0l249 0C520 0 571 78 571 155 571 232 521 310 412 310l-174 0 0 173-215 0 0-66 140 0M238 244l168 0C468 244 494 203 494 155 494 107 467 66 406 66l-168 0z" unicode="ъ"></glyph><glyph d="M150 483l-75 0 0-483 249 0C432 0 483 78 483 155 483 232 433 310 324 310l-174 0M562 0l75 0 0 483-75 0M150 244l168 0C380 244 406 203 406 155 406 107 379 66 318 66l-168 0z" unicode="ы"></glyph><glyph d="M150 483l-75 0 0-483 249 0C432 0 483 78 483 155 483 232 433 310 324 310l-174 0M150 244l168 0C380 244 406 203 406 155 406 107 379 66 318 66l-168 0z" unicode="ь"></glyph><glyph d="M222 495C145 495 86 469 39 421l36-49C113 411 162 433 216 433 324 433 383 351 389 277l-267 0 0-65 266 0C383 126 320 50 216 50 160 50 105 72 66 111l-36-49C79 14 144-12 222-12 365-12 469 91 469 242 469 389 367 495 222 495z" unicode="э"></glyph><glyph d="M480 495C348 495 261 403 244 282l-94 0 0 201-75 0 0-483 75 0 0 216 93 0C254 88 344-12 480-12 628-12 720 102 720 242 720 382 628 495 480 495M480 55C378 55 320 143 320 242 320 340 378 428 480 428 584 428 641 340 641 242 641 143 584 55 480 55z" unicode="ю"></glyph><glyph d="M59 0l88 0 118 187 132 0 0-187 75 0 0 483-255 0C119 483 64 417 64 335 64 254 116 199 188 190M397 253l-172 0C170 253 141 287 141 335 141 383 172 417 225 417l172 0z" unicode="я"></glyph><glyph d="M181 566C207 566 227 587 227 613 227 638 207 659 181 659 156 659 135 638 135 613 135 587 156 566 181 566M388 566C413 566 434 587 434 613 434 638 413 659 388 659 362 659 341 638 341 613 341 587 362 566 388 566M47 242C47 91 150-12 293-12 372-12 437 14 485 62l-36 49C411 72 355 50 300 50 196 50 132 126 126 217l391 0 0 19C517 381 431 495 285 495 147 495 47 382 47 242M284 433C394 433 442 344 443 272l-317 0C130 346 181 433 284 433z" unicode="ё"></glyph><glyph d="M282-189C297-194 315-196 336-196 427-196 479-142 479-47l0 386C479 444 425 495 324 495 252 495 186 453 152 413l0 122 157 0 0 48-157 0 0 84-75 0 0-84-68 0 0-48 68 0 0-535 75 0 0 353C180 392 236 428 295 428 360 428 404 401 404 316l0-363C404-108 371-131 328-131 316-131 302-130 292-126z" unicode="ђ"></glyph><glyph d="M270 556l169 144-90 0-148-144M413 417l0 66-338 0 0-483 75 0 0 417z" unicode="ѓ"></glyph><glyph d="M300 50C196 50 132 126 128 212l266 0 0 65-267 0C132 351 192 433 300 433 354 433 403 411 440 372l36 49C430 469 370 495 293 495 149 495 47 389 47 242 47 91 150-12 293-12 372-12 437 14 485 62l-36 49C411 72 355 50 300 50z" unicode="є"></glyph><glyph d="M33 64C82 12 149-12 228-12 353-12 418 53 418 134 418 241 321 265 237 284 174 299 119 314 119 361 119 404 160 434 226 434 288 434 341 408 370 373l35 52C366 464 308 495 226 495 111 495 46 431 46 356 46 256 139 234 221 215 286 199 345 182 345 129 345 82 305 49 231 49 165 49 104 81 72 118z" unicode="ѕ"></glyph><glyph d="M112 561C140 561 163 583 163 611 163 639 140 662 112 662 85 662 62 639 62 611 62 583 85 561 112 561M75 0l75 0 0 483-75 0z" unicode="і"></glyph><glyph d="M9 566C35 566 55 587 55 613 55 638 35 659 9 659-16 659-37 638-37 613-37 587-16 566 9 566M216 566C241 566 262 587 262 613 262 638 241 659 216 659 190 659 169 638 169 613 169 587 190 566 216 566M75 0l75 0 0 483-75 0z" unicode="ї"></glyph><glyph d="M112 561C140 561 163 583 163 611 163 639 140 662 112 662 85 662 62 639 62 611 62 583 85 561 112 561M150 483l-75 0 0-530C75-108 44-131 0-131-12-131-26-130-36-126l-10-63C-30-194-13-196 8-196 99-196 150-142 150-47z" unicode="ј"></glyph><glyph d="M18 61l0-73C111-12 177 55 202 365l5 52 195 0 0-417 248 0C758 0 810 78 810 155 810 232 759 310 650 310l-173 0 0 173-335 0-10-114C110 121 69 61 18 61M477 244l167 0C706 244 733 203 733 155 733 107 705 66 644 66l-167 0z" unicode="љ"></glyph><glyph d="M75 0l75 0 0 216 252 0 0-216 251 0C760 0 810 75 810 150 810 227 760 302 653 302l-176 0 0 181-75 0 0-201-252 0 0 201-75 0M477 236l170 0C707 236 733 197 733 150 733 104 706 66 647 66l-170 0z" unicode="њ"></glyph><glyph d="M325 495C252 495 186 453 152 413l0 122 157 0 0 48-157 0 0 84-75 0 0-84-68 0 0-48 68 0 0-535 75 0 0 353C181 392 237 428 295 428 360 428 404 403 404 318l0-318 75 0 0 341C479 446 425 495 325 495z" unicode="ћ"></glyph><glyph d="M293 556l169 144-90 0-148-144M404 0l96 0-215 264 214 219-95 0-254-257 0 257-75 0 0-483 75 0 0 138 80 79z" unicode="ќ"></glyph><glyph d="M245 550C312 550 370 581 407 632l-43 35C337 629 295 605 245 605 195 605 153 629 125 667l-43-35C120 581 179 550 245 550M60-121l-12-68C62-193 87-196 103-196 167-195 216-168 245-98l242 581-82 0-160-396-161 396-81 0 202-488-32-73C156-118 134-129 101-129 89-129 71-126 60-121z" unicode="ў"></glyph><glyph d="M468 483l-75 0 0-417-243 0 0 417-75 0 0-483 164 0 0-126 66 0 0 126 163 0z" unicode="џ"></glyph><glyph d="M161 0l0 593 354 0 0 197-74 0 0-123-363 0 0-667z" unicode="Ґ"></glyph><glyph d="M150 0l0 417 263 0 0 192-66 0 0-126-272 0 0-483z" unicode="ґ"></glyph><glyph d="M515 593l0 74-437 0 0-305-68 0 0-64 68 0 0-298 83 0 0 298 198 0 0 64-198 0 0 231z" unicode="Ғ"></glyph><glyph d="M413 417l0 66-338 0 0-211-65 0 0-53 65 0 0-219 75 0 0 219 135 0 0 53-135 0 0 145z" unicode="ғ"></glyph><glyph d="M522 74l-240 276 278 317-104 0-295-345 0 345-83 0 0-667 83 0 0 224 67 76 253-300 43 0 0-123 74 0 0 197z" unicode="Қ"></glyph><glyph d="M448 66l-163 198 214 219-95 0-254-257 0 257-75 0 0-483 75 0 0 138 80 79 174-217 53 0 0-123 66 0 0 189z" unicode="қ"></glyph><glyph d="M584 74l-204 269 244 324-101 0-197-267-198 267-101 0 245-325-260-342 101 0 213 284 213-284 47 0 0-123 74 0 0 197z" unicode="Ҳ"></glyph><glyph d="M427 66l-138 182 175 235-87 0-134-184-134 184-87 0 175-235-185-248 86 0 145 198 145-198 47 0 0-123 66 0 0 189z" unicode="ҳ"></glyph><glyph d="M382 678C184 678 51 530 51 333 51 136 184-12 382-12 579-12 713 136 713 333 713 530 579 678 382 678M382 604C516 604 608 511 624 378l-484 0C156 511 247 604 382 604M382 62C242 62 149 164 138 304l488 0C615 164 521 62 382 62z" unicode="Ө"></glyph><glyph d="M286 495C139 495 47 382 47 242 47 102 139-12 286-12 433-12 525 102 525 242 525 382 433 495 286 495M286 428C378 428 433 357 444 272l-316 0C138 357 194 428 286 428M286 55C191 55 136 129 127 217l318 0C436 129 380 55 286 55z" unicode="ө"></glyph><glyph d="M264 778C264 752 286 731 311 731 337 731 357 752 357 778 357 804 337 825 311 825 286 825 264 804 264 778M78 0l304 0C504 0 575 73 575 180 575 260 516 333 445 344 506 357 562 413 562 497 562 597 491 667 375 667l-297 0M161 378l0 215 200 0C436 593 476 545 476 485 476 424 436 378 361 378M161 74l0 230 204 0C447 304 489 250 489 189 489 118 443 74 365 74z" unicode="Ḃ"></glyph><glyph d="M247 778C247 752 269 731 294 731 320 731 340 752 340 778 340 804 320 825 294 825 269 825 247 804 247 778M75 0l75 0 0 72C186 23 245-12 313-12 439-12 528 84 528 241 528 395 439 495 313 495 247 495 189 463 150 410l0 257-75 0M150 131l0 219C176 392 235 428 294 428 392 428 450 348 450 241 450 134 392 55 294 55 235 55 176 89 150 131z" unicode="ḃ"></glyph><glyph d="M305 778C305 752 327 731 352 731 378 731 398 752 398 778 398 804 378 825 352 825 327 825 305 804 305 778M78 0l228 0C513 0 648 143 648 333 648 522 513 667 306 667l-228 0M161 74l0 519 145 0C471 593 562 477 562 333 562 190 468 74 306 74z" unicode="Ḋ"></glyph><glyph d="M243 778C243 752 265 731 290 731 316 731 336 752 336 778 336 804 316 825 290 825 265 825 243 804 243 778M425 0l75 0 0 667-75 0 0-257C386 463 327 495 262 495 135 495 47 395 47 241 47 84 136-12 262-12 330-12 389 23 425 72M425 131C398 89 340 55 280 55 183 55 125 134 125 241 125 348 183 428 280 428 340 428 398 392 425 350z" unicode="ḋ"></glyph><glyph d="M254 778C254 752 276 731 301 731 327 731 347 752 347 778 347 804 327 825 301 825 276 825 254 804 254 778M78 0l83 0 0 304 347 0 0 74-347 0 0 215 354 0 0 74-437 0z" unicode="Ḟ"></glyph><glyph d="M166 778C166 752 188 731 213 731 239 731 259 752 259 778 259 804 239 825 213 825 188 825 166 804 166 778M96 0l75 0 0 417 98 0 0 66-98 0 0 37C171 581 198 615 247 615 264 615 278 611 290 604l19 56C290 672 264 677 236 677 152 677 96 620 96 520l0-37-80 0 0-66 80 0z" unicode="ḟ"></glyph><glyph d="M309 778C309 752 331 731 356 731 382 731 402 752 402 778 402 804 382 825 356 825 331 825 309 804 309 778M551 0l83 0 0 667-83 0 0-287-390 0 0 287-83 0 0-667 83 0 0 306 390 0z" unicode="Ḣ"></glyph><glyph d="M229 778C229 752 251 731 276 731 302 731 322 752 322 778 322 804 302 825 276 825 251 825 229 804 229 778M402 0l75 0 0 341C477 446 424 495 323 495 250 495 184 453 150 413l0 254-75 0 0-667 75 0 0 353C179 392 235 428 293 428 358 428 402 403 402 318z" unicode="ḣ"></glyph><glyph d="M259 778C259 752 281 731 306 731 332 731 352 752 352 778 352 804 332 825 306 825 281 825 259 804 259 778M78 0l83 0 0 265 185 0C478 265 555 357 555 466 555 575 480 667 346 667l-268 0M469 466C469 391 415 339 336 339l-175 0 0 254 175 0C415 593 469 541 469 466z" unicode="Ṗ"></glyph><glyph d="M260 611C260 585 282 564 307 564 333 564 353 585 353 611 353 637 333 658 307 658 282 658 260 637 260 611M150-184l0 257C189 19 247-12 313-12 440-12 528 86 528 242 528 399 440 495 313 495 245 495 185 460 150 411l0 72-75 0 0-667M449 242C449 135 391 55 294 55 235 55 176 91 150 133l0 218C176 393 235 428 294 428 391 428 449 349 449 242z" unicode="ṗ"></glyph><glyph d="M241 778C241 752 263 731 288 731 314 731 334 752 334 778 334 804 314 825 288 825 263 825 241 804 241 778M38 94C93 32 178-12 294-12 474-12 540 87 540 184 540 324 416 358 307 387 222 410 145 430 145 497 145 560 202 603 282 603 355 603 425 578 475 523l50 61C469 643 390 677 288 677 157 677 59 602 59 492 59 361 178 331 285 303 373 279 454 257 454 177 454 126 416 62 297 62 203 62 131 108 87 157z" unicode="Ṡ"></glyph><glyph d="M179 611C179 585 201 564 226 564 252 564 272 585 272 611 272 637 252 658 226 658 201 658 179 637 179 611M33 64C82 12 149-12 228-12 353-12 418 53 418 134 418 241 321 265 237 284 174 299 119 314 119 361 119 404 160 434 226 434 288 434 341 408 370 373l35 52C366 464 308 495 226 495 111 495 46 431 46 356 46 256 139 234 221 215 286 199 345 182 345 129 345 82 305 49 231 49 165 49 104 81 72 118z" unicode="ṡ"></glyph><glyph d="M238 778C238 752 260 731 285 731 311 731 331 752 331 778 331 804 311 825 285 825 260 825 238 804 238 778M243 0l83 0 0 593 212 0 0 74-506 0 0-74 211 0z" unicode="Ṫ"></glyph><glyph d="M81 778C81 752 103 731 128 731 154 731 174 752 174 778 174 804 154 825 128 825 103 825 81 804 81 778M197-12C241-12 268 1 287 19l-22 56C255 64 235 55 214 55 181 55 165 81 165 117l0 300 98 0 0 66-98 0 0 132-75 0 0-132-80 0 0-66 80 0 0-316C90 29 126-12 197-12z" unicode="ṫ"></glyph><glyph d="M404 392l171 187C528 646 449 678 350 678 169 678 78 571 78 407l0-407 83 0 0 405C161 527 227 604 350 604 398 604 437 592 467 571l-163-176 0-71 37 0C469 324 554 291 554 192 554 112 498 62 413 62 348 62 306 87 272 120l-51-58C258 23 318-12 413-12 543-12 640 71 640 192 640 328 538 386 404 392z" unicode="ẞ"></glyph><glyph d="M557 0l92 0-269 667-103 0-268-667 92 0 59 148 338 0M329 593l144-371-289 0M282-129C282-155 304-176 329-176 355-176 375-155 375-129 375-103 355-82 329-82 304-82 282-103 282-129z" unicode="Ạ"></glyph><glyph d="M377 0l75 0 0 332C452 449 367 495 265 495 186 495 124 469 72 415l35-52C150 409 197 430 255 430 325 430 377 393 377 328l0-87C338 286 283 307 217 307 135 307 48 256 48 148 48 43 135-12 217-12 282-12 337 11 377 55M377 102C348 62 297 42 244 42 174 42 125 86 125 147 125 209 174 253 244 253 297 253 348 233 377 193M219-129C219-155 241-176 266-176 292-176 312-155 312-129 312-103 292-82 266-82 241-82 219-103 219-129z" unicode="ạ"></glyph><glyph d="M228 813l42-13C279 826 296 842 323 842 350 842 369 826 369 792 369 769 361 747 340 724l51 0C407 747 415 766 415 793 415 856 371 883 323 883 274 883 241 852 228 813M557 0l92 0-269 667-103 0-268-667 92 0 59 148 338 0M329 593l144-371-289 0z" unicode="Ả"></glyph><glyph d="M165 646l42-13C216 659 233 675 260 675 287 675 306 659 306 625 306 602 298 580 277 557l51 0C344 580 352 599 352 626 352 689 308 716 260 716 211 716 178 685 165 646M377 0l75 0 0 332C452 449 367 495 265 495 186 495 124 469 72 415l35-52C150 409 197 430 255 430 325 430 377 393 377 328l0-87C338 286 283 307 217 307 135 307 48 256 48 148 48 43 135-12 217-12 282-12 337 11 377 55M377 102C348 62 297 42 244 42 174 42 125 86 125 147 125 209 174 253 244 253 297 253 348 233 377 193z" unicode="ả"></glyph><glyph d="M488 780l169 108-78 0-148-108M412 705l51 0-98 108-72 0-95-108 51 0 80 79M557 0l92 0-269 667-103 0-268-667 92 0 59 148 338 0M329 593l144-371-289 0z" unicode="Ấ"></glyph><glyph d="M425 656l169 144-78 0-148-144M349 556l51 0-98 144-72 0-95-144 51 0 80 106M377 0l75 0 0 332C452 449 367 495 265 495 186 495 124 469 72 415l35-52C150 409 197 430 255 430 325 430 377 393 377 328l0-87C338 286 283 307 217 307 135 307 48 256 48 148 48 43 135-12 217-12 282-12 337 11 377 55M377 102C348 62 297 42 244 42 174 42 125 86 125 147 125 209 174 253 244 253 297 253 348 233 377 193z" unicode="ấ"></glyph><glyph d="M174 780l57 0-148 108-78 0M412 705l51 0-98 108-72 0-95-108 51 0 80 79M557 0l92 0-269 667-103 0-268-667 92 0 59 148 338 0M329 593l144-371-289 0z" unicode="Ầ"></glyph><glyph d="M111 656l57 0-148 144-78 0M349 556l51 0-98 144-72 0-95-144 51 0 80 106M377 0l75 0 0 332C452 449 367 495 265 495 186 495 124 469 72 415l35-52C150 409 197 430 255 430 325 430 377 393 377 328l0-87C338 286 283 307 217 307 135 307 48 256 48 148 48 43 135-12 217-12 282-12 337 11 377 55M377 102C348 62 297 42 244 42 174 42 125 86 125 147 125 209 174 253 244 253 297 253 348 233 377 193z" unicode="ầ"></glyph><glyph d="M319 846l42-9C370 857 387 869 414 869 441 869 460 856 460 831 460 814 452 797 431 780l51 0C498 797 506 811 506 832 506 879 462 899 414 899 365 899 332 876 319 846M412 705l51 0-98 108-72 0-95-108 51 0 80 79M557 0l92 0-269 667-103 0-268-667 92 0 59 148 338 0M329 593l144-371-289 0z" unicode="Ẩ"></glyph><glyph d="M256 745l42-13C307 758 324 774 351 774 378 774 397 758 397 724 397 701 389 679 368 656l51 0C435 679 443 698 443 725 443 788 399 815 351 815 302 815 269 784 256 745M349 556l51 0-98 144-72 0-95-144 51 0 80 106M377 0l75 0 0 332C452 449 367 495 265 495 186 495 124 469 72 415l35-52C150 409 197 430 255 430 325 430 377 393 377 328l0-87C338 286 283 307 217 307 135 307 48 256 48 148 48 43 135-12 217-12 282-12 337 11 377 55M377 102C348 62 297 42 244 42 174 42 125 86 125 147 125 209 174 253 244 253 297 253 348 233 377 193z" unicode="ẩ"></glyph><glyph d="M313 864C330 845 349 825 389 825 452 825 486 867 486 925l-45 0C441 880 420 861 393 861 371 861 359 874 345 890 328 909 310 930 270 930 207 930 173 888 173 829l45 0C218 874 239 894 266 894 288 894 300 880 313 864M412 705l51 0-98 108-72 0-95-108 51 0 80 79M557 0l92 0-269 667-103 0-268-667 92 0 59 148 338 0M329 593l144-371-289 0z" unicode="Ẫ"></glyph><glyph d="M250 769C267 744 286 716 326 716 389 716 423 772 423 850l-45 0C378 790 357 764 330 764 308 764 296 783 282 803 265 828 247 856 207 856 144 856 110 800 110 722l45 0C155 782 176 808 203 808 225 808 237 789 250 769M349 556l51 0-98 144-72 0-95-144 51 0 80 106M377 0l75 0 0 332C452 449 367 495 265 495 186 495 124 469 72 415l35-52C150 409 197 430 255 430 325 430 377 393 377 328l0-87C338 286 283 307 217 307 135 307 48 256 48 148 48 43 135-12 217-12 282-12 337 11 377 55M377 102C348 62 297 42 244 42 174 42 125 86 125 147 125 209 174 253 244 253 297 253 348 233 377 193z" unicode="ẫ"></glyph><glyph d="M412 723l51 0-98 144-72 0-95-144 51 0 80 106M557 0l92 0-269 667-103 0-268-667 92 0 59 148 338 0M329 593l144-371-289 0M282-129C282-155 304-176 329-176 355-176 375-155 375-129 375-103 355-82 329-82 304-82 282-103 282-129z" unicode="Ậ"></glyph><glyph d="M349 556l51 0-98 144-72 0-95-144 51 0 80 106M377 0l75 0 0 332C452 449 367 495 265 495 186 495 124 469 72 415l35-52C150 409 197 430 255 430 325 430 377 393 377 328l0-87C338 286 283 307 217 307 135 307 48 256 48 148 48 43 135-12 217-12 282-12 337 11 377 55M377 102C348 62 297 42 244 42 174 42 125 86 125 147 125 209 174 253 244 253 297 253 348 233 377 193M219-129C219-155 241-176 266-176 292-176 312-155 312-129 312-103 292-82 266-82 241-82 219-103 219-129z" unicode="ậ"></glyph><glyph d="M355 807l169 108-78 0-148-108M329 707C401 707 464 735 504 781l-37 27C436 771 387 747 329 747 270 747 222 771 190 808l-37-27C194 735 258 707 329 707M557 0l92 0-269 667-103 0-268-667 92 0 59 148 338 0M329 593l144-371-289 0z" unicode="Ắ"></glyph><glyph d="M292 676l169 144-78 0-148-144M266 550C338 550 401 584 441 638l-37 32C373 625 324 598 266 598 207 598 159 626 127 670l-37-32C131 584 195 550 266 550M377 0l75 0 0 332C452 449 367 495 265 495 186 495 124 469 72 415l35-52C150 409 197 430 255 430 325 430 377 393 377 328l0-87C338 286 283 307 217 307 135 307 48 256 48 148 48 43 135-12 217-12 282-12 337 11 377 55M377 102C348 62 297 42 244 42 174 42 125 86 125 147 125 209 174 253 244 253 297 253 348 233 377 193z" unicode="ắ"></glyph><glyph d="M300 807l57 0-148 108-78 0M329 707C401 707 464 735 504 781l-37 27C436 771 387 747 329 747 270 747 222 771 190 808l-37-27C194 735 258 707 329 707M557 0l92 0-269 667-103 0-268-667 92 0 59 148 338 0M329 593l144-371-289 0z" unicode="Ằ"></glyph><glyph d="M237 676l57 0-148 144-78 0M266 550C338 550 401 584 441 638l-37 32C373 625 324 598 266 598 207 598 159 626 127 670l-37-32C131 584 195 550 266 550M377 0l75 0 0 332C452 449 367 495 265 495 186 495 124 469 72 415l35-52C150 409 197 430 255 430 325 430 377 393 377 328l0-87C338 286 283 307 217 307 135 307 48 256 48 148 48 43 135-12 217-12 282-12 337 11 377 55M377 102C348 62 297 42 244 42 174 42 125 86 125 147 125 209 174 253 244 253 297 253 348 233 377 193z" unicode="ằ"></glyph><glyph d="M228 874l42-9C279 885 296 897 323 897 350 897 369 884 369 859 369 842 361 825 340 808l51 0C407 825 415 839 415 860 415 907 371 927 323 927 274 927 241 904 228 874M329 707C401 707 464 735 504 781l-37 27C436 771 387 747 329 747 270 747 222 771 190 808l-37-27C194 735 258 707 329 707M557 0l92 0-269 667-103 0-268-667 92 0 59 148 338 0M329 593l144-371-289 0z" unicode="Ẳ"></glyph><glyph d="M165 766l42-13C216 779 233 795 260 795 287 795 306 779 306 745 306 722 298 700 277 677l51 0C344 700 352 719 352 746 352 809 308 836 260 836 211 836 178 805 165 766M266 550C338 550 401 584 441 638l-37 32C373 625 324 598 266 598 207 598 159 626 127 670l-37-32C131 584 195 550 266 550M377 0l75 0 0 332C452 449 367 495 265 495 186 495 124 469 72 415l35-52C150 409 197 430 255 430 325 430 377 393 377 328l0-87C338 286 283 307 217 307 135 307 48 256 48 148 48 43 135-12 217-12 282-12 337 11 377 55M377 102C348 62 297 42 244 42 174 42 125 86 125 147 125 209 174 253 244 253 297 253 348 233 377 193z" unicode="ẳ"></glyph><glyph d="M313 833C330 814 349 794 389 794 452 794 486 836 486 894l-45 0C441 849 420 830 393 830 371 830 359 843 345 859 328 878 310 899 270 899 207 899 173 857 173 798l45 0C218 843 239 863 266 863 288 863 300 849 313 833M329 701C401 701 464 726 504 767l-37 23C436 757 387 737 329 737 270 737 222 758 190 790l-37-23C194 726 258 701 329 701M557 0l92 0-269 667-103 0-268-667 92 0 59 148 338 0M329 593l144-371-289 0z" unicode="Ẵ"></glyph><glyph d="M250 727C267 702 286 674 326 674 389 674 423 730 423 808l-45 0C378 748 357 722 330 722 308 722 296 741 282 761 265 786 247 814 207 814 144 814 110 758 110 680l45 0C155 740 176 766 203 766 225 766 237 747 250 727M266 550C338 550 401 584 441 638l-37 32C373 625 324 598 266 598 207 598 159 626 127 670l-37-32C131 584 195 550 266 550M377 0l75 0 0 332C452 449 367 495 265 495 186 495 124 469 72 415l35-52C150 409 197 430 255 430 325 430 377 393 377 328l0-87C338 286 283 307 217 307 135 307 48 256 48 148 48 43 135-12 217-12 282-12 337 11 377 55M377 102C348 62 297 42 244 42 174 42 125 86 125 147 125 209 174 253 244 253 297 253 348 233 377 193z" unicode="ẵ"></glyph><glyph d="M329 717C401 717 464 751 504 805l-37 32C436 792 387 765 329 765 270 765 222 793 190 837l-37-32C194 751 258 717 329 717M557 0l92 0-269 667-103 0-268-667 92 0 59 148 338 0M329 593l144-371-289 0M282-129C282-155 304-176 329-176 355-176 375-155 375-129 375-103 355-82 329-82 304-82 282-103 282-129z" unicode="Ặ"></glyph><glyph d="M266 550C338 550 401 584 441 638l-37 32C373 625 324 598 266 598 207 598 159 626 127 670l-37-32C131 584 195 550 266 550M377 0l75 0 0 332C452 449 367 495 265 495 186 495 124 469 72 415l35-52C150 409 197 430 255 430 325 430 377 393 377 328l0-87C338 286 283 307 217 307 135 307 48 256 48 148 48 43 135-12 217-12 282-12 337 11 377 55M377 102C348 62 297 42 244 42 174 42 125 86 125 147 125 209 174 253 244 253 297 253 348 233 377 193M219-129C219-155 241-176 266-176 292-176 312-155 312-129 312-103 292-82 266-82 241-82 219-103 219-129z" unicode="ặ"></glyph><glyph d="M78 0l437 0 0 74-354 0 0 230 347 0 0 74-347 0 0 215 354 0 0 74-437 0M255-129C255-155 277-176 302-176 328-176 348-155 348-129 348-103 328-82 302-82 277-82 255-103 255-129z" unicode="Ẹ"></glyph><glyph d="M47 242C47 91 150-12 293-12 372-12 437 14 485 62l-36 49C411 72 355 50 300 50 196 50 132 126 126 217l391 0 0 19C517 381 431 495 285 495 147 495 47 382 47 242M284 433C394 433 442 344 443 272l-317 0C130 346 181 433 284 433M237-129C237-155 259-176 284-176 310-176 330-155 330-129 330-103 310-82 284-82 259-82 237-103 237-129z" unicode="ẹ"></glyph><glyph d="M201 813l42-13C252 826 269 842 296 842 323 842 342 826 342 792 342 769 334 747 313 724l51 0C380 747 388 766 388 793 388 856 344 883 296 883 247 883 214 852 201 813M78 0l437 0 0 74-354 0 0 230 347 0 0 74-347 0 0 215 354 0 0 74-437 0z" unicode="Ẻ"></glyph><glyph d="M183 646l42-13C234 659 251 675 278 675 305 675 324 659 324 625 324 602 316 580 295 557l51 0C362 580 370 599 370 626 370 689 326 716 278 716 229 716 196 685 183 646M47 242C47 91 150-12 293-12 372-12 437 14 485 62l-36 49C411 72 355 50 300 50 196 50 132 126 126 217l391 0 0 19C517 381 431 495 285 495 147 495 47 382 47 242M284 433C394 433 442 344 443 272l-317 0C130 346 181 433 284 433z" unicode="ẻ"></glyph><glyph d="M286 774C303 749 322 721 362 721 425 721 459 777 459 855l-45 0C414 795 393 769 366 769 344 769 332 788 318 808 301 833 283 861 243 861 180 861 146 805 146 727l45 0C191 787 212 813 239 813 261 813 273 794 286 774M78 0l437 0 0 74-354 0 0 230 347 0 0 74-347 0 0 215 354 0 0 74-437 0z" unicode="Ẽ"></glyph><glyph d="M268 607C285 582 304 554 344 554 407 554 441 610 441 688l-45 0C396 628 375 602 348 602 326 602 314 621 300 641 283 666 265 694 225 694 162 694 128 638 128 560l45 0C173 620 194 646 221 646 243 646 255 627 268 607M47 242C47 91 150-12 293-12 372-12 437 14 485 62l-36 49C411 72 355 50 300 50 196 50 132 126 126 217l391 0 0 19C517 381 431 495 285 495 147 495 47 382 47 242M284 433C394 433 442 344 443 272l-317 0C130 346 181 433 284 433z" unicode="ẽ"></glyph><glyph d="M461 780l169 108-78 0-148-108M385 705l51 0-98 108-72 0-95-108 51 0 80 79M78 0l437 0 0 74-354 0 0 230 347 0 0 74-347 0 0 215 354 0 0 74-437 0z" unicode="Ế"></glyph><glyph d="M443 656l169 144-78 0-148-144M367 556l51 0-98 144-72 0-95-144 51 0 80 106M47 242C47 91 150-12 293-12 372-12 437 14 485 62l-36 49C411 72 355 50 300 50 196 50 132 126 126 217l391 0 0 19C517 381 431 495 285 495 147 495 47 382 47 242M284 433C394 433 442 344 443 272l-317 0C130 346 181 433 284 433z" unicode="ế"></glyph><glyph d="M147 780l57 0-148 108-78 0M385 705l51 0-98 108-72 0-95-108 51 0 80 79M78 0l437 0 0 74-354 0 0 230 347 0 0 74-347 0 0 215 354 0 0 74-437 0z" unicode="Ề"></glyph><glyph d="M129 656l57 0-148 144-78 0M367 556l51 0-98 144-72 0-95-144 51 0 80 106M47 242C47 91 150-12 293-12 372-12 437 14 485 62l-36 49C411 72 355 50 300 50 196 50 132 126 126 217l391 0 0 19C517 381 431 495 285 495 147 495 47 382 47 242M284 433C394 433 442 344 443 272l-317 0C130 346 181 433 284 433z" unicode="ề"></glyph><glyph d="M292 846l42-9C343 857 360 869 387 869 414 869 433 856 433 831 433 814 425 797 404 780l51 0C471 797 479 811 479 832 479 879 435 899 387 899 338 899 305 876 292 846M385 705l51 0-98 108-72 0-95-108 51 0 80 79M78 0l437 0 0 74-354 0 0 230 347 0 0 74-347 0 0 215 354 0 0 74-437 0z" unicode="Ể"></glyph><glyph d="M274 745l42-13C325 758 342 774 369 774 396 774 415 758 415 724 415 701 407 679 386 656l51 0C453 679 461 698 461 725 461 788 417 815 369 815 320 815 287 784 274 745M367 556l51 0-98 144-72 0-95-144 51 0 80 106M47 242C47 91 150-12 293-12 372-12 437 14 485 62l-36 49C411 72 355 50 300 50 196 50 132 126 126 217l391 0 0 19C517 381 431 495 285 495 147 495 47 382 47 242M284 433C394 433 442 344 443 272l-317 0C130 346 181 433 284 433z" unicode="ể"></glyph><glyph d="M286 864C303 845 322 825 362 825 425 825 459 867 459 925l-45 0C414 880 393 861 366 861 344 861 332 874 318 890 301 909 283 930 243 930 180 930 146 888 146 829l45 0C191 874 212 894 239 894 261 894 273 880 286 864M385 705l51 0-98 108-72 0-95-108 51 0 80 79M78 0l437 0 0 74-354 0 0 230 347 0 0 74-347 0 0 215 354 0 0 74-437 0z" unicode="Ễ"></glyph><glyph d="M268 769C285 744 304 716 344 716 407 716 441 772 441 850l-45 0C396 790 375 764 348 764 326 764 314 783 300 803 283 828 265 856 225 856 162 856 128 800 128 722l45 0C173 782 194 808 221 808 243 808 255 789 268 769M367 556l51 0-98 144-72 0-95-144 51 0 80 106M47 242C47 91 150-12 293-12 372-12 437 14 485 62l-36 49C411 72 355 50 300 50 196 50 132 126 126 217l391 0 0 19C517 381 431 495 285 495 147 495 47 382 47 242M284 433C394 433 442 344 443 272l-317 0C130 346 181 433 284 433z" unicode="ễ"></glyph><glyph d="M385 723l51 0-98 144-72 0-95-144 51 0 80 106M78 0l437 0 0 74-354 0 0 230 347 0 0 74-347 0 0 215 354 0 0 74-437 0M255-129C255-155 277-176 302-176 328-176 348-155 348-129 348-103 328-82 302-82 277-82 255-103 255-129z" unicode="Ệ"></glyph><glyph d="M367 556l51 0-98 144-72 0-95-144 51 0 80 106M47 242C47 91 150-12 293-12 372-12 437 14 485 62l-36 49C411 72 355 50 300 50 196 50 132 126 126 217l391 0 0 19C517 381 431 495 285 495 147 495 47 382 47 242M284 433C394 433 442 344 443 272l-317 0C130 346 181 433 284 433M237-129C237-155 259-176 284-176 310-176 330-155 330-129 330-103 310-82 284-82 259-82 237-103 237-129z" unicode="ệ"></glyph><glyph d="M19 813l42-13C70 826 87 842 114 842 141 842 160 826 160 792 160 769 152 747 131 724l51 0C198 747 206 766 206 793 206 856 162 883 114 883 65 883 32 852 19 813M78 0l83 0 0 667-83 0z" unicode="Ỉ"></glyph><glyph d="M11 646l42-13C62 659 79 675 106 675 133 675 152 659 152 625 152 602 144 580 123 557l51 0C190 580 198 599 198 626 198 689 154 716 106 716 57 716 24 685 11 646M75 0l75 0 0 483-75 0z" unicode="ỉ"></glyph><glyph d="M78 0l83 0 0 667-83 0M73-129C73-155 95-176 120-176 146-176 166-155 166-129 166-103 146-82 120-82 95-82 73-103 73-129z" unicode="Ị"></glyph><glyph d="M112 561C140 561 163 583 163 611 163 639 140 662 112 662 85 662 62 639 62 611 62 583 85 561 112 561M75 0l75 0 0 483-75 0M65-129C65-155 87-176 112-176 138-176 158-155 158-129 158-103 138-82 112-82 87-82 65-103 65-129z" unicode="ị"></glyph><glyph d="M51 333C51 136 184-12 382-12 579-12 713 136 713 333 713 530 579 678 382 678 184 678 51 530 51 333M627 333C627 178 531 62 382 62 232 62 137 178 137 333 137 489 232 604 382 604 531 604 627 489 627 333M334-129C334-155 356-176 381-176 407-176 427-155 427-129 427-103 407-82 381-82 356-82 334-103 334-129z" unicode="Ọ"></glyph><glyph d="M286-12C433-12 525 102 525 242 525 382 433 495 286 495 139 495 47 382 47 242 47 102 139-12 286-12M286 55C183 55 125 143 125 242 125 340 183 428 286 428 389 428 446 340 446 242 446 143 389 55 286 55M239-129C239-155 261-176 286-176 312-176 332-155 332-129 332-103 312-82 286-82 261-82 239-103 239-129z" unicode="ọ"></glyph><glyph d="M280 813l42-13C331 826 348 842 375 842 402 842 421 826 421 792 421 769 413 747 392 724l51 0C459 747 467 766 467 793 467 856 423 883 375 883 326 883 293 852 280 813M51 333C51 136 184-12 382-12 579-12 713 136 713 333 713 530 579 678 382 678 184 678 51 530 51 333M627 333C627 178 531 62 382 62 232 62 137 178 137 333 137 489 232 604 382 604 531 604 627 489 627 333z" unicode="Ỏ"></glyph><glyph d="M185 646l42-13C236 659 253 675 280 675 307 675 326 659 326 625 326 602 318 580 297 557l51 0C364 580 372 599 372 626 372 689 328 716 280 716 231 716 198 685 185 646M286-12C433-12 525 102 525 242 525 382 433 495 286 495 139 495 47 382 47 242 47 102 139-12 286-12M286 55C183 55 125 143 125 242 125 340 183 428 286 428 389 428 446 340 446 242 446 143 389 55 286 55z" unicode="ỏ"></glyph><glyph d="M540 780l169 108-78 0-148-108M464 705l51 0-98 108-72 0-95-108 51 0 80 79M51 333C51 136 184-12 382-12 579-12 713 136 713 333 713 530 579 678 382 678 184 678 51 530 51 333M627 333C627 178 531 62 382 62 232 62 137 178 137 333 137 489 232 604 382 604 531 604 627 489 627 333z" unicode="Ố"></glyph><glyph d="M444 656l169 144-78 0-148-144M369 556l51 0-98 144-72 0-95-144 51 0 80 106M286-12C433-12 525 102 525 242 525 382 433 495 286 495 139 495 47 382 47 242 47 102 139-12 286-12M286 55C183 55 125 143 125 242 125 340 183 428 286 428 389 428 446 340 446 242 446 143 389 55 286 55z" unicode="ố"></glyph><glyph d="M226 780l57 0-148 108-78 0M464 705l51 0-98 108-72 0-95-108 51 0 80 79M51 333C51 136 184-12 382-12 579-12 713 136 713 333 713 530 579 678 382 678 184 678 51 530 51 333M627 333C627 178 531 62 382 62 232 62 137 178 137 333 137 489 232 604 382 604 531 604 627 489 627 333z" unicode="Ồ"></glyph><glyph d="M131 656l57 0-148 144-78 0M369 556l51 0-98 144-72 0-95-144 51 0 80 106M286-12C433-12 525 102 525 242 525 382 433 495 286 495 139 495 47 382 47 242 47 102 139-12 286-12M286 55C183 55 125 143 125 242 125 340 183 428 286 428 389 428 446 340 446 242 446 143 389 55 286 55z" unicode="ồ"></glyph><glyph d="M372 846l42-9C423 857 440 869 467 869 494 869 513 856 513 831 513 814 505 797 484 780l51 0C551 797 559 811 559 832 559 879 515 899 467 899 418 899 385 876 372 846M464 705l51 0-98 108-72 0-95-108 51 0 80 79M51 333C51 136 184-12 382-12 579-12 713 136 713 333 713 530 579 678 382 678 184 678 51 530 51 333M627 333C627 178 531 62 382 62 232 62 137 178 137 333 137 489 232 604 382 604 531 604 627 489 627 333z" unicode="Ổ"></glyph><glyph d="M276 745l42-13C327 758 344 774 371 774 398 774 417 758 417 724 417 701 409 679 388 656l51 0C455 679 463 698 463 725 463 788 419 815 371 815 322 815 289 784 276 745M369 556l51 0-98 144-72 0-95-144 51 0 80 106M286-12C433-12 525 102 525 242 525 382 433 495 286 495 139 495 47 382 47 242 47 102 139-12 286-12M286 55C183 55 125 143 125 242 125 340 183 428 286 428 389 428 446 340 446 242 446 143 389 55 286 55z" unicode="ổ"></glyph><glyph d="M365 864C382 845 401 825 441 825 504 825 538 867 538 925l-45 0C493 880 472 861 445 861 423 861 411 874 397 890 380 909 362 930 322 930 259 930 225 888 225 829l45 0C270 874 291 894 318 894 340 894 352 880 365 864M464 705l51 0-98 108-72 0-95-108 51 0 80 79M51 333C51 136 184-12 382-12 579-12 713 136 713 333 713 530 579 678 382 678 184 678 51 530 51 333M627 333C627 178 531 62 382 62 232 62 137 178 137 333 137 489 232 604 382 604 531 604 627 489 627 333z" unicode="Ỗ"></glyph><glyph d="M270 769C287 744 306 716 346 716 409 716 443 772 443 850l-45 0C398 790 377 764 350 764 328 764 316 783 302 803 285 828 267 856 227 856 164 856 130 800 130 722l45 0C175 782 196 808 223 808 245 808 257 789 270 769M369 556l51 0-98 144-72 0-95-144 51 0 80 106M286-12C433-12 525 102 525 242 525 382 433 495 286 495 139 495 47 382 47 242 47 102 139-12 286-12M286 55C183 55 125 143 125 242 125 340 183 428 286 428 389 428 446 340 446 242 446 143 389 55 286 55z" unicode="ỗ"></glyph><glyph d="M464 723l51 0-98 144-72 0-95-144 51 0 80 106M51 333C51 136 184-12 382-12 579-12 713 136 713 333 713 530 579 678 382 678 184 678 51 530 51 333M627 333C627 178 531 62 382 62 232 62 137 178 137 333 137 489 232 604 382 604 531 604 627 489 627 333M334-129C334-155 356-176 381-176 407-176 427-155 427-129 427-103 407-82 381-82 356-82 334-103 334-129z" unicode="Ộ"></glyph><glyph d="M369 556l51 0-98 144-72 0-95-144 51 0 80 106M286-12C433-12 525 102 525 242 525 382 433 495 286 495 139 495 47 382 47 242 47 102 139-12 286-12M286 55C183 55 125 143 125 242 125 340 183 428 286 428 389 428 446 340 446 242 446 143 389 55 286 55M239-129C239-155 261-176 286-176 312-176 332-155 332-129 332-103 312-82 286-82 261-82 239-103 239-129z" unicode="ộ"></glyph><glyph d="M576 867l-78 0-148-144 57 0M719 664C719 704 696 727 669 727 645 727 627 707 627 683 627 660 643 642 666 642 670 642 676 643 677 644 674 619 656 588 632 568 573 636 486 678 382 678 184 678 51 530 51 333 51 136 184-12 382-12 579-12 713 136 713 333 713 411 692 482 654 538 691 566 719 613 719 664M382 62C232 62 137 178 137 333 137 489 232 604 382 604 531 604 627 489 627 333 627 178 531 62 382 62z" unicode="Ớ"></glyph><glyph d="M481 700l-78 0-148-144 57 0M527 530C527 570 504 593 477 593 453 593 434 573 434 550 434 526 451 509 474 509l11 1C482 486 466 458 443 438 403 474 350 495 286 495 139 495 47 382 47 242 47 102 139-12 286-12 433-12 525 102 525 242 525 307 505 366 469 411 502 438 527 483 527 530M286 55C183 55 125 143 125 242 125 340 183 428 286 428 389 428 446 340 446 242 446 143 389 55 286 55z" unicode="ớ"></glyph><glyph d="M410 723l-148 144-78 0 169-144M719 664C719 704 696 727 669 727 645 727 627 707 627 683 627 660 643 642 666 642 670 642 676 643 677 644 674 619 656 588 632 568 573 636 486 678 382 678 184 678 51 530 51 333 51 136 184-12 382-12 579-12 713 136 713 333 713 411 692 482 654 538 691 566 719 613 719 664M382 62C232 62 137 178 137 333 137 489 232 604 382 604 531 604 627 489 627 333 627 178 531 62 382 62z" unicode="Ờ"></glyph><glyph d="M314 556l-148 144-78 0 169-144M527 530C527 570 504 593 477 593 453 593 434 573 434 550 434 526 451 509 474 509l11 1C482 486 466 458 443 438 403 474 350 495 286 495 139 495 47 382 47 242 47 102 139-12 286-12 433-12 525 102 525 242 525 307 505 366 469 411 502 438 527 483 527 530M286 55C183 55 125 143 125 242 125 340 183 428 286 428 389 428 446 340 446 242 446 143 389 55 286 55z" unicode="ờ"></glyph><glyph d="M375 842C402 842 421 826 421 792 421 769 413 747 392 724l51 0C459 747 467 766 467 793 467 856 423 883 375 883 326 883 293 852 280 813l42-13C331 826 348 842 375 842M719 664C719 704 696 727 669 727 645 727 627 707 627 683 627 660 643 642 666 642 670 642 676 643 677 644 674 619 656 588 632 568 573 636 486 678 382 678 184 678 51 530 51 333 51 136 184-12 382-12 579-12 713 136 713 333 713 411 692 482 654 538 691 566 719 613 719 664M382 62C232 62 137 178 137 333 137 489 232 604 382 604 531 604 627 489 627 333 627 178 531 62 382 62z" unicode="Ở"></glyph><glyph d="M280 675C307 675 326 659 326 625 326 602 318 580 297 557l51 0C364 580 372 599 372 626 372 689 328 716 280 716 231 716 198 685 185 646l42-13C236 659 253 675 280 675M527 530C527 570 504 593 477 593 453 593 434 573 434 550 434 526 451 509 474 509l11 1C482 486 466 458 443 438 403 474 350 495 286 495 139 495 47 382 47 242 47 102 139-12 286-12 433-12 525 102 525 242 525 307 505 366 469 411 502 438 527 483 527 530M286 55C183 55 125 143 125 242 125 340 183 428 286 428 389 428 446 340 446 242 446 143 389 55 286 55z" unicode="ở"></glyph><glyph d="M318 813C340 813 352 794 365 774 382 749 401 721 441 721 504 721 538 777 538 855l-45 0C493 795 472 769 445 769 423 769 411 788 397 808 380 833 362 861 322 861 259 861 225 805 225 727l45 0C270 787 291 813 318 813M719 664C719 704 696 727 669 727 645 727 627 707 627 683 627 660 643 642 666 642 670 642 676 643 677 644 674 619 656 588 632 568 573 636 486 678 382 678 184 678 51 530 51 333 51 136 184-12 382-12 579-12 713 136 713 333 713 411 692 482 654 538 691 566 719 613 719 664M382 62C232 62 137 178 137 333 137 489 232 604 382 604 531 604 627 489 627 333 627 178 531 62 382 62z" unicode="Ỡ"></glyph><glyph d="M223 646C245 646 257 627 270 607 287 582 306 554 346 554 409 554 443 610 443 688l-45 0C398 628 377 602 350 602 328 602 316 621 302 641 285 666 267 694 227 694 164 694 130 638 130 560l45 0C175 620 196 646 223 646M527 530C527 570 504 593 477 593 453 593 434 573 434 550 434 526 451 509 474 509l11 1C482 486 466 458 443 438 403 474 350 495 286 495 139 495 47 382 47 242 47 102 139-12 286-12 433-12 525 102 525 242 525 307 505 366 469 411 502 438 527 483 527 530M286 55C183 55 125 143 125 242 125 340 183 428 286 428 389 428 446 340 446 242 446 143 389 55 286 55z" unicode="ỡ"></glyph><glyph d="M719 664C719 704 696 727 669 727 645 727 627 707 627 683 627 660 643 642 666 642 670 642 676 643 677 644 674 619 656 588 632 568 573 636 486 678 382 678 184 678 51 530 51 333 51 136 184-12 382-12 579-12 713 136 713 333 713 411 692 482 654 538 691 566 719 613 719 664M382 62C232 62 137 178 137 333 137 489 232 604 382 604 531 604 627 489 627 333 627 178 531 62 382 62M381-82C356-82 334-103 334-129 334-155 356-176 381-176 407-176 427-155 427-129 427-103 407-82 381-82z" unicode="Ợ"></glyph><glyph d="M527 530C527 570 504 593 477 593 453 593 434 573 434 550 434 526 451 509 474 509l11 1C482 486 466 458 443 438 403 474 350 495 286 495 139 495 47 382 47 242 47 102 139-12 286-12 433-12 525 102 525 242 525 307 505 366 469 411 502 438 527 483 527 530M286 55C183 55 125 143 125 242 125 340 183 428 286 428 389 428 446 340 446 242 446 143 389 55 286 55M286-82C261-82 239-103 239-129 239-155 261-176 286-176 312-176 332-155 332-129 332-103 312-82 286-82z" unicode="ợ"></glyph><glyph d="M78 259C78 95 169-12 350-12 531-12 622 94 622 260l0 407-83 0 0-406C539 139 473 62 350 62 227 62 161 139 161 261l0 406-83 0M303-129C303-155 325-176 350-176 376-176 396-155 396-129 396-103 376-82 350-82 325-82 303-103 303-129z" unicode="Ụ"></glyph><glyph d="M401 0l75 0 0 483-75 0 0-355C373 89 317 55 258 55 193 55 150 80 150 165l0 318-75 0 0-341C75 37 128-12 229-12 301-12 364 26 401 68M228-129C228-155 250-176 275-176 301-176 321-155 321-129 321-103 301-82 275-82 250-82 228-103 228-129z" unicode="ụ"></glyph><glyph d="M249 813l42-13C300 826 317 842 344 842 371 842 390 826 390 792 390 769 382 747 361 724l51 0C428 747 436 766 436 793 436 856 392 883 344 883 295 883 262 852 249 813M78 259C78 95 169-12 350-12 531-12 622 94 622 260l0 407-83 0 0-406C539 139 473 62 350 62 227 62 161 139 161 261l0 406-83 0z" unicode="Ủ"></glyph><glyph d="M174 646l42-13C225 659 242 675 269 675 296 675 315 659 315 625 315 602 307 580 286 557l51 0C353 580 361 599 361 626 361 689 317 716 269 716 220 716 187 685 174 646M401 0l75 0 0 483-75 0 0-355C373 89 317 55 258 55 193 55 150 80 150 165l0 318-75 0 0-341C75 37 128-12 229-12 301-12 364 26 401 68z" unicode="ủ"></glyph><glyph d="M545 867l-78 0-148-144 57 0M738 728C738 768 714 791 688 791 663 791 645 771 645 748 645 724 662 707 684 707 688 707 694 708 695 708 693 671 660 633 622 614l0 53-83 0 0-406C539 139 473 62 350 62 227 62 161 139 161 261l0 406-83 0 0-408C78 95 169-12 350-12 531-12 622 94 622 260l0 315C694 603 738 665 738 728z" unicode="Ứ"></glyph><glyph d="M470 700l-78 0-148-144 57 0M570 536C570 576 546 599 519 599 495 599 476 579 476 556 476 532 493 515 516 515l11 1C525 487 504 456 476 435l0 48-75 0 0-355C373 89 317 55 258 55 193 55 150 80 150 165l0 318-75 0 0-341C75 37 128-12 229-12 301-12 364 26 401 68l0-68 75 0 0 393C534 424 570 479 570 536z" unicode="ứ"></glyph><glyph d="M379 723l-148 144-78 0 169-144M738 728C738 768 714 791 688 791 663 791 645 771 645 748 645 724 662 707 684 707 688 707 694 708 695 708 693 671 660 633 622 614l0 53-83 0 0-406C539 139 473 62 350 62 227 62 161 139 161 261l0 406-83 0 0-408C78 95 169-12 350-12 531-12 622 94 622 260l0 315C694 603 738 665 738 728z" unicode="Ừ"></glyph><glyph d="M304 556l-148 144-78 0 169-144M570 536C570 576 546 599 519 599 495 599 476 579 476 556 476 532 493 515 516 515l11 1C525 487 504 456 476 435l0 48-75 0 0-355C373 89 317 55 258 55 193 55 150 80 150 165l0 318-75 0 0-341C75 37 128-12 229-12 301-12 364 26 401 68l0-68 75 0 0 393C534 424 570 479 570 536z" unicode="ừ"></glyph><glyph d="M344 842C371 842 390 826 390 792 390 769 382 747 361 724l51 0C428 747 436 766 436 793 436 856 392 883 344 883 295 883 262 852 249 813l42-13C300 826 317 842 344 842M738 728C738 768 714 791 688 791 663 791 645 771 645 748 645 724 662 707 684 707 688 707 694 708 695 708 693 671 660 633 622 614l0 53-83 0 0-406C539 139 473 62 350 62 227 62 161 139 161 261l0 406-83 0 0-408C78 95 169-12 350-12 531-12 622 94 622 260l0 315C694 603 738 665 738 728z" unicode="Ử"></glyph><glyph d="M269 675C296 675 315 659 315 625 315 602 307 580 286 557l51 0C353 580 361 599 361 626 361 689 317 716 269 716 220 716 187 685 174 646l42-13C225 659 242 675 269 675M570 536C570 576 546 599 519 599 495 599 476 579 476 556 476 532 493 515 516 515l11 1C525 487 504 456 476 435l0 48-75 0 0-355C373 89 317 55 258 55 193 55 150 80 150 165l0 318-75 0 0-341C75 37 128-12 229-12 301-12 364 26 401 68l0-68 75 0 0 393C534 424 570 479 570 536z" unicode="ử"></glyph><glyph d="M287 813C309 813 321 794 334 774 351 749 370 721 410 721 473 721 507 777 507 855l-45 0C462 795 441 769 414 769 392 769 380 788 366 808 349 833 331 861 291 861 228 861 194 805 194 727l45 0C239 787 260 813 287 813M738 728C738 768 714 791 688 791 663 791 645 771 645 748 645 724 662 707 684 707 688 707 694 708 695 708 693 671 660 633 622 614l0 53-83 0 0-406C539 139 473 62 350 62 227 62 161 139 161 261l0 406-83 0 0-408C78 95 169-12 350-12 531-12 622 94 622 260l0 315C694 603 738 665 738 728z" unicode="Ữ"></glyph><glyph d="M212 646C234 646 246 627 259 607 276 582 295 554 335 554 398 554 432 610 432 688l-45 0C387 628 366 602 339 602 317 602 305 621 291 641 274 666 256 694 216 694 153 694 119 638 119 560l45 0C164 620 185 646 212 646M570 536C570 576 546 599 519 599 495 599 476 579 476 556 476 532 493 515 516 515l11 1C525 487 504 456 476 435l0 48-75 0 0-355C373 89 317 55 258 55 193 55 150 80 150 165l0 318-75 0 0-341C75 37 128-12 229-12 301-12 364 26 401 68l0-68 75 0 0 393C534 424 570 479 570 536z" unicode="ữ"></glyph><glyph d="M738 728C738 768 714 791 688 791 663 791 645 771 645 748 645 724 662 707 684 707 688 707 694 708 695 708 693 671 660 633 622 614l0 53-83 0 0-406C539 139 473 62 350 62 227 62 161 139 161 261l0 406-83 0 0-408C78 95 169-12 350-12 531-12 622 94 622 260l0 315C694 603 738 665 738 728M350-82C325-82 303-103 303-129 303-155 325-176 350-176 376-176 396-155 396-129 396-103 376-82 350-82z" unicode="Ự"></glyph><glyph d="M275 564C301 564 321 585 321 611 321 637 301 658 275 658 250 658 228 637 228 611 228 585 250 564 275 564M570 536C570 576 546 599 519 599 495 599 476 579 476 556 476 532 493 515 516 515l11 1C525 487 504 456 476 435l0 48-75 0 0-355C373 89 317 55 258 55 193 55 150 80 150 165l0 318-75 0 0-341C75 37 128-12 229-12 301-12 364 26 401 68l0-68 75 0 0 393C534 424 570 479 570 536z" unicode="ự"></glyph><glyph d="M272 0l83 0 0 282 262 385-97 0-207-310-207 310-97 0 263-385M266-129C266-155 288-176 313-176 339-176 359-155 359-129 359-103 339-82 313-82 288-82 266-103 266-129z" unicode="Ỵ"></glyph><glyph d="M60-121l-12-68C62-193 87-196 103-196 167-195 216-168 245-98l242 581-82 0-160-396-161 396-81 0 202-488-32-73C156-118 134-129 101-129 89-129 71-126 60-121M198-247C198-273 220-294 245-294 271-294 291-273 291-247 291-221 271-200 245-200 220-200 198-221 198-247z" unicode="ỵ"></glyph><glyph d="M212 813l42-13C263 826 280 842 307 842 334 842 353 826 353 792 353 769 345 747 324 724l51 0C391 747 399 766 399 793 399 856 355 883 307 883 258 883 225 852 212 813M272 0l83 0 0 282 262 385-97 0-207-310-207 310-97 0 263-385z" unicode="Ỷ"></glyph><glyph d="M144 646l42-13C195 659 212 675 239 675 266 675 285 659 285 625 285 602 277 580 256 557l51 0C323 580 331 599 331 626 331 689 287 716 239 716 190 716 157 685 144 646M60-121l-12-68C62-193 87-196 103-196 167-195 216-168 245-98l242 581-82 0-160-396-161 396-81 0 202-488-32-73C156-118 134-129 101-129 89-129 71-126 60-121z" unicode="ỷ"></glyph><glyph d="M297 774C314 749 333 721 373 721 436 721 470 777 470 855l-45 0C425 795 404 769 377 769 355 769 343 788 329 808 312 833 294 861 254 861 191 861 157 805 157 727l45 0C202 787 223 813 250 813 272 813 284 794 297 774M272 0l83 0 0 282 262 385-97 0-207-310-207 310-97 0 263-385z" unicode="Ỹ"></glyph><glyph d="M229 607C246 582 265 554 305 554 368 554 402 610 402 688l-45 0C357 628 336 602 309 602 287 602 275 621 261 641 244 666 226 694 186 694 123 694 89 638 89 560l45 0C134 620 155 646 182 646 204 646 216 627 229 607M60-121l-12-68C62-193 87-196 103-196 167-195 216-168 245-98l242 581-82 0-160-396-161 396-81 0 202-488-32-73C156-118 134-129 101-129 89-129 71-126 60-121z" unicode="ỹ"></glyph><glyph unicode=" "></glyph><glyph d="M30 209l533 0 0 66-533 0z" unicode="―"></glyph><glyph d="M34 419l35-14C69 405 177 601 183 614 185 619 186 626 186 631 186 656 167 677 140 677 122 677 105 666 98 649 92 634 34 419 34 419z" unicode="′"></glyph><glyph d="M34 419l35-14C69 405 177 601 183 614 185 619 186 626 186 631 186 656 167 677 140 677 122 677 105 666 98 649 92 634 34 419 34 419M190 419l34-14C224 405 333 601 338 614 341 619 342 626 342 631 342 656 322 677 296 677 278 677 260 666 253 649 247 634 190 419 190 419z" unicode="″"></glyph><glyph d="M235 677C140 677 66 637 18 575l50-54C105 570 152 603 236 603 313 603 362 562 362 494 362 425 321 385 263 359l7 165-94 0 16-337 63 0 5 96C340 316 440 381 440 494 440 605 357 677 235 677M224 100C194 100 169 75 169 45 169 15 194-10 224-10 254-10 279 15 279 45 279 75 254 100 224 100z" unicode="‽"></glyph><glyph d="M28 572l307 0 0 48-307 0z" unicode="‾"></glyph><glyph d="M194 414C308 414 355 522 355 621 355 720 308 827 194 827 79 827 33 720 33 621 33 522 79 414 194 414M194 778C267 778 293 702 293 621 293 539 267 463 194 463 120 463 94 539 94 621 94 702 120 778 194 778z" unicode="⁰"></glyph><glyph d="M294 521l58 0 0 49-58 0 0 251-83 0-172-256 0-44 196 0 0-100 59 0M235 768l0-198-136 0z" unicode="⁴"></glyph><glyph d="M192 414C279 414 344 466 344 547 344 631 281 674 212 674 170 674 136 657 116 638l0 134 201 0 0 49-261 0 0-217 43-15C126 616 157 628 194 628 248 628 284 595 284 545 284 499 247 463 192 463 143 463 106 483 79 518l-35-39C74 439 122 414 192 414z" unicode="⁵"></glyph><glyph d="M203 414C293 414 350 474 350 546 350 631 288 676 213 676 162 676 118 642 98 615l0 17C98 705 133 778 212 778 254 778 278 763 300 739l29 42C301 808 264 827 212 827 95 827 38 733 38 620 38 509 84 414 203 414M198 628C248 628 290 601 290 544 290 507 259 463 200 463 131 463 104 521 100 572 122 606 160 628 198 628z" unicode="⁶"></glyph><glyph d="M157 421l166 358 0 42-290 0 0-49 223 0-166-351z" unicode="⁷"></glyph><glyph d="M194 414C275 414 347 451 347 523 347 576 300 614 246 627 296 639 340 670 340 722 340 796 264 827 194 827 124 827 48 796 48 722 48 670 92 639 142 627 88 614 41 576 41 523 41 450 112 414 194 414M194 779C242 779 280 756 280 715 280 666 215 651 194 647 173 651 107 666 107 715 107 756 145 779 194 779M194 605C216 602 287 582 287 528 287 486 244 461 194 461 143 461 100 486 100 528 100 582 172 602 194 605z" unicode="⁸"></glyph><glyph d="M186 827C95 827 38 766 38 695 38 609 101 565 176 565 226 565 270 598 290 626l0-16C289 534 253 463 176 463 134 463 110 478 88 502l-28-42C87 432 124 414 176 414 293 414 350 508 350 620 350 731 304 827 186 827M190 613C140 613 98 640 98 697 98 734 129 778 189 778 257 778 284 719 288 669 266 634 228 613 190 613z" unicode="⁹"></glyph><glyph d="M116 356l35 16C111 450 88 520 88 621 88 722 111 791 151 870l-35 16C59 815 26 717 26 621 26 524 59 426 116 356z" unicode="⁽"></glyph><glyph d="M57 356C114 427 148 524 148 621 148 717 114 815 57 886l-34-16C63 792 86 722 86 621 86 520 63 450 23 372z" unicode="⁾"></glyph><glyph d="M280 326l58 0 0 215C338 605 313 648 233 648 183 648 140 621 118 595l0 45-58 0 0-314 58 0 0 228C136 577 171 600 210 600 252 600 280 581 280 526z" unicode="ⁿ"></glyph><glyph d="M194-153C308-153 355-45 355 54 355 153 308 260 194 260 79 260 33 153 33 54 33-45 79-153 194-153M194 211C267 211 293 135 293 54 293-28 267-104 194-104 120-104 94-28 94 54 94 135 120 211 194 211z" unicode="₀"></glyph><glyph d="M115-146l60 0 0 400-53 0-108-110 35-37 66 69z" unicode="₁"></glyph><glyph d="M50-146l291 0 0 49-203 0C256-12 339 61 339 142 339 223 269 260 196 260 139 260 82 239 49 197l33-38C103 187 144 211 194 211 237 211 279 189 279 138 279 73 203 8 50-101z" unicode="₂"></glyph><glyph d="M192-153C285-153 343-105 343-37 343 27 285 57 247 60 286 67 336 95 336 153 336 219 277 260 192 260 126 260 78 233 47 198l31-36C108 195 143 211 187 211 236 211 276 188 276 147 276 100 234 83 178 83 162 83 146 83 139 84l0-50C145 35 161 35 179 35 237 35 283 17 283-34 283-77 248-104 190-104 144-104 101-83 74-50l-32-38C68-124 120-153 192-153z" unicode="₃"></glyph><glyph d="M294-46l58 0 0 49-58 0 0 251-83 0-172-256 0-44 196 0 0-100 59 0M235 201l0-198-136 0z" unicode="₄"></glyph><glyph d="M192-153C279-153 344-101 344-20 344 64 281 107 212 107 170 107 136 90 116 71l0 134 201 0 0 49-261 0 0-217 43-15C126 49 157 61 194 61 248 61 284 28 284-22 284-68 247-104 192-104 143-104 106-84 79-49l-35-39C74-128 122-153 192-153z" unicode="₅"></glyph><glyph d="M203-153C293-153 350-93 350-21 350 64 288 109 213 109 162 109 118 75 98 48l0 17C98 138 133 211 212 211 254 211 278 196 300 172l29 42C301 241 264 260 212 260 95 260 38 166 38 53 38-58 84-153 203-153M198 61C248 61 290 34 290-23 290-60 259-104 200-104 131-104 104-46 100 5 122 39 160 61 198 61z" unicode="₆"></glyph><glyph d="M157-146l166 358 0 42-290 0 0-49 223 0-166-351z" unicode="₇"></glyph><glyph d="M194-153C275-153 347-116 347-44 347 9 300 47 246 60 296 72 340 103 340 155 340 229 264 260 194 260 124 260 48 229 48 155 48 103 92 72 142 60 88 47 41 9 41-44 41-117 112-153 194-153M194 212C242 212 280 189 280 148 280 99 215 84 194 80 173 84 107 99 107 148 107 189 145 212 194 212M194 38C216 35 287 15 287-39 287-81 244-106 194-106 143-106 100-81 100-39 100 15 172 35 194 38z" unicode="₈"></glyph><glyph d="M186 260C95 260 38 199 38 128 38 42 101-2 176-2 226-2 270 31 290 59l0-16C289-33 253-104 176-104 134-104 110-89 88-65l-28-42C87-135 124-153 176-153 293-153 350-59 350 53 350 164 304 260 186 260M190 46C140 46 98 73 98 130 98 167 129 211 189 211 257 211 284 152 288 102 266 67 228 46 190 46z" unicode="₉"></glyph><glyph d="M116-211l35 16C111-117 88-47 88 54 88 155 111 224 151 303l-35 16C59 248 26 150 26 54 26-43 59-141 116-211z" unicode="₍"></glyph><glyph d="M57-211C114-140 148-43 148 54 148 150 114 248 57 319l-34-16C63 225 86 155 86 54 86-47 63-117 23-195z" unicode="₎"></glyph><glyph d="M525 593l0 74-437 0 0-482-78 0 0-48 78 0 0-137 83 0 0 137 202 0 0 48-202 0 0 119 347 0 0 74-347 0 0 215z" unicode="₣"></glyph><glyph d="M718 384l0 48-78 0 0 235-83 0 0-235-213 0-171 235-85 0 0-235-78 0 0-48 78 0 0-95-78 0 0-48 78 0 0-241 83 0 0 241 215 0 174-241 80 0 0 241 78 0 0 48-78 0 0 95M171 538l77-106-77 0M171 289l0 95 111 0 69-95M557 289l-108 0-70 95 178 0M557 140l-73 101 73 0z" unicode="₦"></glyph><glyph d="M464 0l98 0-180 272C473 280 555 346 555 466 555 589 468 667 346 667l-268 0 0-667 83 0 0 265 133 0M469 466C469 391 415 338 336 338l-175 0 0 255 175 0C415 593 469 541 469 466M635 64C684 12 751-12 830-12 955-12 1020 53 1020 134 1020 241 923 265 839 284 776 299 721 314 721 361 721 404 762 434 828 434 890 434 943 408 972 373l35 52C968 464 910 495 828 495 713 495 648 431 648 356 648 256 741 234 823 215 888 199 947 182 947 129 947 82 907 49 833 49 767 49 706 81 674 118z" unicode="₨"></glyph><glyph d="M868 667l-92 0-62-235-173 0-65 235-69 0-65-235-173 0-63 235-92 0 67-235-61 0 0-48 75 0 27-95-102 0 0-48 115 0 69-241 90 0 66 241 162 0 66-241 90 0 69 241 116 0 0 48-102 0 27 95 75 0 0 48-62 0M470 432l-58 0 29 106M181 384l148 0-26-95-97 0M373 289l26 95 84 0 26-95M676 289l-96 0-26 95 147 0M219 241l71 0-36-130M629 111l-36 130 70 0z" unicode="₩"></glyph><glyph d="M548 338C548 474 480 550 323 550l-248 0 0-550 73 0 0 484 175 0C427 484 475 433 475 332l0-170 73 0M273 0l248 0C678 0 745 76 745 212l0 338-73 0 0-333C672 117 624 66 521 66l-175 0 0 321-73 0z" unicode="₪"></glyph><glyph d="M494 667l-463 0 0-74 150 0C251 593 302 555 312 493l-281 0 0-52 281 0C301 379 250 338 181 338l-150 0 0-73 109 0 170-265 97 0-180 272C312 280 389 337 399 441l95 0 0 52-96 0C391 545 364 588 320 615l174 0z" unicode="₹"></glyph><glyph d="M415 244C381 138 301 74 189 74l-19 0 0 196 175 101 0 60-175-101 0 104 175 101 0 60-175-101 0 173-83 0 0-221-77-45 0-60 77 45 0-104-77-45 0-59 77 44 0-222 102 0C335 0 442 88 487 223z" unicode="₺"></glyph><glyph d="M346 272C478 272 555 362 555 469 555 576 480 667 346 667l-268 0 0-328-71 0 0-67 71 0 0-97-71 0 0-52 71 0 0-123 83 0 0 123 250 0 0 52-250 0 0 97M161 593l175 0C415 593 469 541 469 466 469 391 415 339 336 339l-175 0z" unicode="₽"></glyph><glyph d="M150 111l0 170 171 114C384 438 442 485 442 551 442 623 365 677 266 677 153 677 75 601 75 505l0-404C75 20 120-12 182-12 218-12 250-3 272 19l-22 51C236 57 218 49 199 49 166 49 150 75 150 111M292 451l-142-96 0 149C150 577 201 621 265 621 318 621 370 593 370 548 370 509 341 484 292 451z" unicode="ℓ"></glyph><glyph d="M748 513C748 422 811 348 910 348 1011 348 1073 422 1073 513 1073 604 1011 678 910 678 811 678 748 604 748 513M550 0l80 0 0 667-83 0 0-527-384 527-85 0 0-667 83 0 0 538M1014 513C1014 447 976 396 910 396 845 396 808 447 808 513 808 578 845 628 910 628 976 628 1014 578 1014 513z" unicode="№"></glyph><glyph d="M389-12C579-12 734 143 734 333 734 523 579 678 389 678 199 678 44 523 44 333 44 143 199-12 389-12M389 647C561 647 703 505 703 333 703 160 561 19 389 19 216 19 75 160 75 333 75 505 216 647 389 647M424 304C492 304 549 347 549 418 549 492 491 535 424 535l-149 0 0-405 37 0 0 174M424 500C474 500 512 469 512 418 512 369 474 338 424 338l-112 0 0 162z" unicode="℗"></glyph><glyph d="M101 439C158 439 188 465 188 506 188 554 145 565 108 575 78 583 52 590 52 613 52 634 72 649 100 649 125 649 148 640 163 622l18 19C164 661 137 673 99 673 53 673 19 647 19 610 19 566 59 556 95 546 126 538 155 530 155 503 155 481 138 464 100 464 72 464 48 479 33 496l-18-21C33 454 62 439 101 439M411 447l28 0 0 220-43 0-64-160-64 160-43 0 0-220 28 0 0 182 75-182 8 0 75 182z" unicode="℠"></glyph><glyph d="M204 74l-135 0 0-74 240 0 0 74C222 96 137 187 137 334 137 481 223 603 382 603 541 603 627 481 627 334 627 187 543 96 456 74l0-74 240 0 0 74-134 0C649 127 713 217 713 348 713 540 580 678 382 678 185 678 51 540 51 348 51 217 116 127 204 74z" unicode="Ω"></glyph><glyph d="M115 267l60 0 0 400-53 0-108-110 35-37 66 69M153 0l427 667-56 0-426-667M600-7C693-7 751 41 751 109 751 173 693 203 655 206 694 213 744 241 744 299 744 365 685 406 600 406 534 406 486 379 455 344l31-36C516 341 551 357 595 357 644 357 684 334 684 293 684 246 642 229 586 229 570 229 554 229 547 230l0-50C553 181 569 181 587 181 645 181 691 163 691 112 691 69 656 42 598 42 552 42 509 63 482 96l-32-38C476 22 528-7 600-7z" unicode="⅓"></glyph><glyph d="M50 267l291 0 0 49-203 0C256 401 339 474 339 555 339 636 269 673 196 673 139 673 82 652 49 610l33-38C103 600 144 624 194 624 237 624 279 602 279 551 279 486 203 421 50 312M271 0l427 667-56 0-426-667M718-7C811-7 869 41 869 109 869 173 811 203 773 206 812 213 862 241 862 299 862 365 803 406 718 406 652 406 604 379 573 344l31-36C634 341 669 357 713 357 762 357 802 334 802 293 802 246 760 229 704 229 688 229 672 229 665 230l0-50C671 181 687 181 705 181 763 181 809 163 809 112 809 69 774 42 716 42 670 42 627 63 600 96l-32-38C594 22 646-7 718-7z" unicode="⅔"></glyph><glyph d="M9 0l640 0-269 667-103 0M329 581l201-507-402 0z" unicode="∆"></glyph><glyph d="M-117 0l427 667-56 0-426-667z" unicode="∕"></glyph><glyph d="M115 190C145 190 170 215 170 244 170 274 145 299 115 299 85 299 60 274 60 244 60 215 85 190 115 190z" unicode="∙"></glyph><glyph d="M54-23l535 309-535 309z" unicode="⊲"></glyph><glyph d="M535-23l0 618-535-309z" unicode="⊳"></glyph><glyph d="M514 42C575 42 625 93 625 154 625 215 575 265 514 265l-73 0 0 137 73 0C575 402 625 453 625 514 625 575 575 625 514 625 453 625 402 575 402 514l0-75-137 0 0 75C265 575 215 625 154 625 93 625 42 575 42 514 42 453 93 402 154 402l72 0 0-137-73 0C92 265 42 215 42 154 42 93 92 42 153 42 214 42 265 93 265 154l0 74 137 0 0-74C402 93 453 42 514 42M226 514l0-75-72 0C113 439 80 473 80 514 80 555 113 588 154 588 195 588 226 555 226 514M514 588C555 588 586 555 586 514 586 473 555 439 514 439l-73 0 0 75C441 555 473 588 514 588M402 265l-137 0 0 137 137 0M226 228l0-74C226 113 194 79 153 79 112 79 80 113 80 154 80 195 111 228 152 228M514 228C556 228 586 195 586 154 586 113 555 79 514 79 473 79 441 113 441 154l0 74z" unicode="⌘"></glyph><glyph d="M347-12C511-12 644 121 644 285 644 449 511 582 347 582 183 582 50 449 50 285 50 121 183-12 347-12z" unicode="●"></glyph><glyph d="M524 250l235 171-290 0-90 276-89-276-290 0 234-171-89-275 234 170 235-170z" unicode="★"></glyph><glyph d="M45 0l571 0 0 572-571 0M559 519l0-467-458 0 0 467z" unicode="☐"></glyph><glyph d="M677 698l-46 29-84-155-502 0 0-572 571 0 0 572-7 0M559 52l-458 0 0 467 418 0-179-331-152 188-42-39 202-246 211 389z" unicode="☑"></glyph><glyph d="M202 91l329 607-46 29-291-539-152 188-42-39z" unicode="✓"></glyph><glyph d="M238 383C268 383 293 408 293 437 293 467 268 493 238 493 208 493 183 467 183 437 183 408 208 383 238 383M394-41C357-90 310-122 226-122 149-122 99-81 99-14 99 56 140 95 199 122l-7-165 93 0-16 339-62 0-5-99C121 164 22 99 22-14 22-124 105-196 227-196 322-196 395-157 443-94z" unicode="⸘"></glyph><glyph d="M280 326l58 0 0 215C338 614 302 648 233 648 183 648 140 621 117 595l0 165-57 0 0-434 57 0 0 228C136 577 171 600 209 600 252 600 280 583 280 528z" unicode=""></glyph><glyph d="M-134-272C-95-243-63-192-63-138-63-95-88-71-116-71-142-71-162-92-162-118-162-143-144-162-120-162-117-162-110-161-109-160-112-189-137-226-167-246z" unicode=""></glyph><glyph d="M199-53l0 213C221 156 240 144 255 122l38 30C273 178 245 200 199 205l0 43-42 0 0-43C80 195 28 133 28 54 28-25 80-87 157-97l0-54 42 0 0 54C245-92 273-71 293-45l-38 30C240-36 221-49 199-53M84 54C84 107 113 148 157 158l0-210C113-41 84 0 84 54z" unicode=""></glyph><glyph d="M199 514l0 213C222 723 240 711 255 689l38 30C273 745 245 767 199 772l0 43-42 0 0-44C80 761 28 699 28 621 28 542 80 481 157 470l0-54 42 0 0 54C245 475 273 496 293 522l-38 30C240 531 222 518 199 514M84 621C84 674 113 714 157 725l0-210C113 526 84 568 84 621z" unicode=""></glyph><glyph d="M54-223C84-202 105-164 105-122 105-95 89-76 66-76 45-76 29-93 29-113 29-133 47-149 65-149 66-149 68-148 68-148 67-167 46-191 28-202z" unicode=""></glyph><glyph d="M54 344C84 365 105 403 105 445 105 472 89 491 66 491 45 491 29 474 29 454 29 434 47 418 65 418 66 418 68 419 68 419 67 400 46 376 28 365z" unicode=""></glyph><glyph d="M345-33C345 47 277 69 211 85l0 127C245 206 276 190 298 166l34 35C307 231 266 252 211 258l0 57-42 0 0-55C89 256 33 209 33 148 33 69 103 50 169 34l0-139C122-100 85-74 60-48l-36-40C55-123 104-149 169-153l0-53 42 0 0 54C300-145 345-100 345-33M95 152C95 185 126 209 169 213l0-118C128 106 95 120 95 152M211-105l0 129C252 12 283-3 283-39 283-72 260-98 211-105z" unicode=""></glyph><glyph d="M345 534C345 614 276 636 211 652l0 127C245 773 276 757 298 733l34 35C307 798 265 819 211 825l0 57-42 0 0-55C89 823 33 776 33 715 33 636 103 617 169 601l0-139C123 467 86 492 60 519l-36-40C55 444 104 418 169 415l0-54 42 0 0 54C300 422 345 467 345 534M95 719C95 752 126 776 169 780l0-118C127 673 95 686 95 719M211 462l0 129C252 580 283 565 283 528 283 496 260 469 211 462z" unicode=""></glyph><glyph d="M18 30l147 0 0 46-147 0z" unicode=""></glyph><glyph d="M18 597l147 0 0 47-147 0z" unicode=""></glyph><glyph d="M72-150C92-150 109-133 109-113 109-93 92-76 72-76 51-76 33-93 33-113 33-133 51-150 72-150z" unicode=""></glyph><glyph d="M72 417C92 417 109 434 109 454 109 474 92 491 72 491 51 491 33 474 33 454 33 434 51 417 72 417z" unicode=""></glyph><glyph d="M260 326l57 0 0 211C317 618 257 648 188 648 136 648 92 630 57 594l25-37C110 589 146 603 181 603 224 603 260 579 260 538l0-55C236 508 201 525 153 525 98 525 41 491 41 422 41 355 98 318 153 318 201 318 236 335 260 361M260 394C242 370 209 356 175 356 131 356 99 382 99 422 99 461 131 488 175 488 209 488 242 474 260 450z" unicode=""></glyph><glyph d="M60 326l58 0 0 45C142 340 181 318 226 318 309 318 370 380 370 483 370 584 310 648 226 648 182 648 144 628 118 594l0 166-58 0M311 483C311 413 272 364 211 364 173 364 135 384 118 409l0 147C135 580 173 601 211 601 272 601 311 552 311 483z" unicode=""></glyph><glyph d="M292 326l57 0 0 434-58 0 0-166C265 628 227 648 184 648 101 648 40 584 40 483 40 380 101 318 184 318 229 318 268 340 292 371M292 409C275 384 238 364 199 364 138 364 100 413 100 483 100 552 138 601 199 601 238 601 275 580 292 556z" unicode=""></glyph><glyph d="M40 483C40 385 111 318 207 318 259 318 304 335 336 365l-26 35C284 375 247 362 211 362 146 362 105 408 100 464l258 0 0 14C358 575 298 648 202 648 108 648 40 574 40 483M201 605C271 605 301 550 303 506l-203 0C103 552 136 605 201 605z" unicode=""></glyph><glyph d="M44 721C44 702 61 685 81 685 101 685 118 702 118 721 118 742 101 759 81 759 61 759 44 742 44 721M52 326l58 0 0 314-58 0z" unicode=""></glyph><glyph d="M60 326l58 0 0 434-58 0z" unicode=""></glyph><glyph d="M453 326l57 0 0 222C510 615 478 648 420 648 370 648 328 618 310 589 300 622 271 648 223 648 174 648 131 615 118 595l0 45-58 0 0-314 58 0 0 228C134 576 167 600 198 600 241 600 257 574 257 535l0-209 57 0 0 228C330 576 364 600 396 600 437 600 453 574 453 535z" unicode=""></glyph><glyph d="M40 483C40 392 103 318 202 318 303 318 365 392 365 483 365 574 303 648 202 648 103 648 40 574 40 483M306 483C306 417 268 366 202 366 137 366 100 417 100 483 100 548 137 598 202 598 268 598 306 548 306 483z" unicode=""></glyph><glyph d="M60 326l58 0 0 222C131 572 173 594 204 594l20 0 0 53C182 647 144 622 118 592l0 48-58 0z" unicode=""></glyph><glyph d="M27 371C60 338 102 318 160 318 246 318 290 362 290 416 290 486 225 500 169 511 128 520 91 527 91 557 91 585 117 606 160 606 200 606 236 590 255 567l25 35C257 627 219 648 158 648 79 648 35 605 35 557 35 491 96 478 151 466 194 455 235 447 235 412 235 381 208 360 161 360 117 360 76 381 54 407z" unicode=""></glyph><glyph d="M62 396C62 346 88 318 139 318 168 318 187 327 200 339l-16 38C178 371 166 365 151 365 131 365 120 381 120 404l0 193 65 0 0 43-65 0 0 86-58 0 0-86-53 0 0-43 53 0z" unicode=""></glyph><glyph d="M514 42C575 42 625 93 625 154 625 215 575 265 514 265l-73 0 0 137 73 0C575 402 625 453 625 514 625 575 575 625 514 625 453 625 402 575 402 514l0-75-137 0 0 75C265 575 215 625 154 625 93 625 42 575 42 514 42 453 93 402 154 402l72 0 0-137-73 0C92 265 42 215 42 154 42 93 92 42 153 42 214 42 265 93 265 154l0 74 137 0 0-74C402 93 453 42 514 42M226 514l0-75-72 0C113 439 80 473 80 514 80 555 113 588 154 588 195 588 226 555 226 514M514 588C555 588 586 555 586 514 586 473 555 439 514 439l-73 0 0 75C441 555 473 588 514 588M402 265l-137 0 0 137 137 0M226 228l0-74C226 113 194 79 153 79 112 79 80 113 80 154 80 195 111 228 152 228M514 228C556 228 586 195 586 154 586 113 555 79 514 79 473 79 441 113 441 154l0 74z" unicode=""></glyph><glyph d="M401 483l0-355C373 89 317 55 258 55 193 55 150 80 150 165l0 318-75 0 0-341C75 37 128-12 229-12 301-12 364 26 401 68l0-68 12 0C355-26 310-66 310-111 310-161 358-186 408-186 435-186 460-179 476-169l-20 45C446-130 434-133 424-133 400-133 382-118 382-94 382-56 420-24 476 0l0 483z" unicode="ų"></glyph><glyph d="M275-12C423-12 515 101 515 250 515 341 484 427 430 495l-67-34C413 403 436 329 436 250 436 143 379 55 275 55 195 55 150 116 150 213l0 270-75 0 0-271C75 77 142-12 275-12z" unicode="υ"></glyph><glyph d="M172 566C198 566 218 587 218 613 218 638 198 659 172 659 147 659 126 638 126 613 126 587 147 566 172 566M379 566C404 566 425 587 425 613 425 638 404 659 379 659 353 659 332 638 332 613 332 587 353 566 379 566M275-12C423-12 515 101 515 250 515 341 484 427 430 495l-67-34C413 403 436 329 436 250 436 143 379 55 275 55 195 55 150 116 150 213l0 270-75 0 0-271C75 77 142-12 275-12z" unicode="ϋ"></glyph><glyph d="M256 574l39 0 57 200-77 0M155 566C180 566 201 587 201 613 201 638 180 659 155 659 129 659 108 638 108 613 108 587 129 566 155 566M423 566C449 566 470 587 470 613 470 638 449 659 423 659 398 659 377 638 377 613 377 587 398 566 423 566M275-12C423-12 515 101 515 250 515 341 484 427 430 495l-67-34C413 403 436 329 436 250 436 143 379 55 275 55 195 55 150 116 150 213l0 270-75 0 0-271C75 77 142-12 275-12z" unicode="ΰ"></glyph><glyph d="M256 574l38 0 57 200-76 0M275-12C423-12 515 101 515 250 515 341 484 427 430 495l-67-34C413 403 436 329 436 250 436 143 379 55 275 55 195 55 150 116 150 213l0 270-75 0 0-271C75 77 142-12 275-12z" unicode="ύ"></glyph><glyph d="M178 641C178 587 222 543 276 543 330 543 374 587 374 641 374 695 330 740 276 740 222 740 178 695 178 641M334 641C334 609 309 582 276 582 244 582 218 609 218 641 218 674 244 700 276 700 309 700 334 674 334 641M401 0l75 0 0 483-75 0 0-355C373 89 317 55 258 55 193 55 150 80 150 165l0 318-75 0 0-341C75 37 128-12 229-12 301-12 364 26 401 68z" unicode="ů"></glyph><glyph d="M259 607C276 582 295 554 335 554 398 554 432 610 432 688l-45 0C387 628 366 602 339 602 317 602 305 621 291 641 274 666 256 694 216 694 153 694 119 638 119 560l45 0C164 620 185 646 212 646 234 646 246 627 259 607M401 0l75 0 0 483-75 0 0-355C373 89 317 55 258 55 193 55 150 80 150 165l0 318-75 0 0-341C75 37 128-12 229-12 301-12 364 26 401 68z" unicode="ũ"></glyph><glyph d="M204 0l82 0 201 483-82 0-160-396-161 396-81 0z" unicode="v"></glyph><glyph d="M493 0l75 0 154 483-78 0-118-385-127 385-64 0-127-385-118 385-78 0 154-483 75 0 126 388z" unicode="w"></glyph><glyph d="M393 556l169 144-78 0-148-144M493 0l75 0 154 483-78 0-118-385-127 385-64 0-127-385-118 385-78 0 154-483 75 0 126 388z" unicode="ẃ"></glyph><glyph d="M450 556l51 0-98 144-72 0-95-144 51 0 80 106M493 0l75 0 154 483-78 0-118-385-127 385-64 0-127-385-118 385-78 0 154-483 75 0 126 388z" unicode="ŵ"></glyph><glyph d="M264 566C290 566 310 587 310 613 310 638 290 659 264 659 239 659 218 638 218 613 218 587 239 566 264 566M471 566C496 566 517 587 517 613 517 638 496 659 471 659 445 659 424 638 424 613 424 587 445 566 471 566M493 0l75 0 154 483-78 0-118-385-127 385-64 0-127-385-118 385-78 0 154-483 75 0 126 388z" unicode="ẅ"></glyph><glyph d="M338 556l57 0-148 144-78 0M493 0l75 0 154 483-78 0-118-385-127 385-64 0-127-385-118 385-78 0 154-483 75 0 126 388z" unicode="ẁ"></glyph><glyph d="M388 0l87 0-186 248 175 235-87 0-134-184-134 184-87 0 175-235-185-248 86 0 145 198z" unicode="x"></glyph><glyph d="M47 172C47 57 142 0 314 0 354 0 371-13 371-40 371-71 347-123 325-157l81 0C434-108 450-68 450-34 450 29 412 66 323 66 197 66 125 104 125 186 125 274 197 310 288 310l143 0 0 65-143 0C206 375 136 410 136 481 136 534 184 586 249 601l187 0 0 66-371 0 0-66 100 0C104 579 57 522 57 463 57 380 132 342 184 333 128 322 47 274 47 172z" unicode="ξ"></glyph><glyph d="M60-121l-12-68C62-193 87-196 103-196 167-195 216-168 245-98l242 581-82 0-160-396-161 396-81 0 202-488-32-73C156-118 134-129 101-129 89-129 71-126 60-121z" unicode="y"></glyph><glyph d="M271 556l169 144-78 0-148-144M60-121l-12-68C62-193 87-196 103-196 167-195 216-168 245-98l242 581-82 0-160-396-161 396-81 0 202-488-32-73C156-118 134-129 101-129 89-129 71-126 60-121z" unicode="ý"></glyph><glyph d="M328 556l51 0-98 144-72 0-95-144 51 0 80 106M60-121l-12-68C62-193 87-196 103-196 167-195 216-168 245-98l242 581-82 0-160-396-161 396-81 0 202-488-32-73C156-118 134-129 101-129 89-129 71-126 60-121z" unicode="ŷ"></glyph><glyph d="M142 566C168 566 188 587 188 613 188 638 168 659 142 659 117 659 96 638 96 613 96 587 117 566 142 566M349 566C374 566 395 587 395 613 395 638 374 659 349 659 323 659 302 638 302 613 302 587 323 566 349 566M60-121l-12-68C62-193 87-196 103-196 167-195 216-168 245-98l242 581-82 0-160-396-161 396-81 0 202-488-32-73C156-118 134-129 101-129 89-129 71-126 60-121z" unicode="ÿ"></glyph><glyph d="M617 667l-97 0-207-310-207 310-97 0 228-333-215 0 0-52 250 0 0-107-250 0 0-53 250 0 0-122 83 0 0 122 250 0 0 53-250 0 0 107 250 0 0 52-216 0z" unicode="¥"></glyph><glyph d="M216 556l57 0-148 144-78 0M60-121l-12-68C62-193 87-196 103-196 167-195 216-168 245-98l242 581-82 0-160-396-161 396-81 0 202-488-32-73C156-118 134-129 101-129 89-129 71-126 60-121z" unicode="ỳ"></glyph><glyph d="M52 0l368 0 0 65-272 0 268 361 0 57-364 0 0-66 266 0-266-359z" unicode="z"></glyph><glyph d="M262 556l169 144-78 0-148-144M52 0l368 0 0 65-272 0 268 361 0 57-364 0 0-66 266 0-266-359z" unicode="ź"></glyph><glyph d="M200 556l72 0 95 144-51 0-80-106-83 106-51 0M52 0l368 0 0 65-272 0 268 361 0 57-364 0 0-66 266 0-266-359z" unicode="ž"></glyph><glyph d="M189 611C189 585 211 564 236 564 262 564 282 585 282 611 282 637 262 658 236 658 211 658 189 637 189 611M52 0l368 0 0 65-272 0 268 361 0 57-364 0 0-66 266 0-266-359z" unicode="ż"></glyph><glyph d="M51 333C51 171 123-12 306-12 488-12 561 171 561 333 561 496 488 677 306 677 123 677 51 496 51 333M476 333C476 200 433 62 306 62 179 62 136 200 136 333 136 466 179 603 306 603 433 603 476 466 476 333z" unicode="0"></glyph><glyph d="M314 0C354 0 371-20 371-48 371-79 347-123 325-157l81 0C434-108 450-68 450-34 450 29 412 67 323 67 204 67 125 112 125 216 125 370 252 499 445 610l0 57-382 0 0-66 284 0C165 502 47 371 47 211 47 73 155 0 314 0z" unicode="ζ"></glyph></font><font><glyph d="M418 0l84 0-199 667-96 0-199-667 83 0 42 151 243 0M255 590l104-369-208 0z" unicode="A"></glyph><glyph d="M359 0l342 0 0 71-262 0 0 235 255 0 0 70-255 0 0 220 262 0 0 71-375 0-316-667 84 0 68 151 197 0M359 591l0-370-167 0z" unicode="Æ"></glyph><glyph d="M420 723l134 144-73 0-113-144M359 0l342 0 0 71-262 0 0 235 255 0 0 70-255 0 0 220 262 0 0 71-375 0-316-667 84 0 68 151 197 0M359 591l0-370-167 0z" unicode="Ǽ"></glyph><glyph d="M279 723l134 144-73 0-113-144M418 0l84 0-199 667-96 0-199-667 83 0 42 151 243 0M255 590l104-369-208 0z" unicode="Á"></glyph><glyph d="M254 719C315 719 368 747 401 793l-36 30C340 787 299 765 254 765 209 765 168 788 144 823l-37-30C141 747 195 719 254 719M418 0l84 0-199 667-96 0-199-667 83 0 42 151 243 0M255 590l104-369-208 0z" unicode="Ă"></glyph><glyph d="M326 723l47 0-83 144-70 0-80-144 46 0 69 105M418 0l84 0-199 667-96 0-199-667 83 0 42 151 243 0M255 590l104-369-208 0z" unicode="Â"></glyph><glyph d="M169 734C193 734 214 754 214 779 214 803 193 824 169 824 144 824 123 803 123 779 123 754 144 734 169 734M342 734C366 734 387 754 387 779 387 803 366 824 342 824 317 824 297 803 297 779 297 754 317 734 342 734M418 0l84 0-199 667-96 0-199-667 83 0 42 151 243 0M255 590l104-369-208 0z" unicode="Ä"></glyph><glyph d="M229 723l52 0-113 144-73 0M418 0l84 0-199 667-96 0-199-667 83 0 42 151 243 0M255 590l104-369-208 0z" unicode="À"></glyph><glyph d="M418 0l84 0-199 667-96 0-199-667 83 0 42 151 243 0M255 590l104-369-208 0z" unicode="Α"></glyph><glyph d="M75 570l37 0 57 200-75 0M418 0l84 0-199 667-96 0-199-667 83 0 42 151 243 0M255 590l104-369-208 0z" unicode="Ά"></glyph><glyph d="M128 740l254 0 0 46-254 0M418 0l84 0-199 667-96 0-199-667 83 0 42 151 243 0M255 590l104-369-208 0z" unicode="Ā"></glyph><glyph d="M491 0l11 0-199 667-96 0-199-667 83 0 42 151 243 0 42-151 14 0C378-30 340-68 340-112 340-162 381-186 427-186 452-186 475-180 491-170l-19 45C462-131 451-133 442-133 420-133 404-120 404-96 404-63 434-30 491 0M151 221l104 369 104-369z" unicode="Ą"></glyph><glyph d="M164 802C164 752 205 711 255 711 305 711 345 752 345 802 345 852 305 893 255 893 205 893 164 852 164 802M307 802C307 773 284 749 255 749 226 749 202 773 202 802 202 831 226 855 255 855 284 855 307 831 307 802M418 0l84 0-199 667-96 0-199-667 83 0 42 151 243 0M255 590l104-369-208 0z" unicode="Å"></glyph><glyph d="M240 776C254 750 269 721 305 721 362 721 390 779 390 855l-42 0C348 794 331 768 309 768 291 768 282 785 271 806 257 832 242 861 206 861 149 861 121 803 121 727l42 0C163 788 180 814 203 814 220 814 229 797 240 776M418 0l84 0-199 667-96 0-199-667 83 0 42 151 243 0M255 590l104-369-208 0z" unicode="Ã"></glyph><glyph d="M70 0l227 0C409 0 467 72 467 180 467 260 419 334 354 344 411 360 456 413 456 497 456 598 395 667 291 667l-221 0M150 376l0 220 126 0C344 596 373 548 373 486 373 424 344 376 276 376M150 71l0 235 131 0C352 306 384 250 384 188 384 115 350 71 281 71z" unicode="B"></glyph><glyph d="M70 0l227 0C409 0 467 72 467 180 467 260 419 334 354 344 411 360 456 413 456 497 456 598 395 667 291 667l-221 0M150 376l0 220 126 0C344 596 373 548 373 486 373 424 344 376 276 376M150 71l0 235 131 0C352 306 384 250 384 188 384 115 350 71 281 71z" unicode="Β"></glyph><glyph d="M303-12C408-12 466 53 502 127l-67 32C410 102 366 59 303 59 197 59 129 176 129 333 129 491 197 607 303 607 363 607 407 570 434 516l66 32C464 617 406 678 303 678 146 678 47 532 47 333 47 134 146-12 303-12z" unicode="C"></glyph><glyph unicode=" "></glyph><glyph d="M327 723l134 144-73 0-113-144M303-12C408-12 466 53 502 127l-67 32C410 102 366 59 303 59 197 59 129 176 129 333 129 491 197 607 303 607 363 607 407 570 434 516l66 32C464 617 406 678 303 678 146 678 47 532 47 333 47 134 146-12 303-12z" unicode="Ć"></glyph><glyph d="M268 723l70 0 80 144-47 0-68-106-72 106-46 0M303-12C408-12 466 53 502 127l-67 32C410 102 366 59 303 59 197 59 129 176 129 333 129 491 197 607 303 607 363 607 407 570 434 516l66 32C464 617 406 678 303 678 146 678 47 532 47 333 47 134 146-12 303-12z" unicode="Č"></glyph><glyph d="M502 127l-67 32C410 102 366 59 303 59 197 59 129 176 129 333 129 491 197 607 303 607 363 607 407 570 434 516l66 32C464 617 406 678 303 678 146 678 47 532 47 333 47 145 135 5 277-11l-23-62 32-18C294-82 305-76 319-76 340-76 352-89 352-109 352-137 326-152 298-152 273-152 250-143 228-124l-18-37C230-177 262-191 299-191 353-191 395-159 395-109 395-71 369-45 335-45 322-45 311-48 302-55l17 44C414-5 467 57 502 127z" unicode="Ç"></glyph><glyph d="M374 723l47 0-83 144-70 0-80-144 46 0 69 105M303-12C408-12 466 53 502 127l-67 32C410 102 366 59 303 59 197 59 129 176 129 333 129 491 197 607 303 607 363 607 407 570 434 516l66 32C464 617 406 678 303 678 146 678 47 532 47 333 47 134 146-12 303-12z" unicode="Ĉ"></glyph><glyph d="M258 777C258 752 279 731 304 731 329 731 349 752 349 777 349 802 329 823 304 823 279 823 258 802 258 777M303-12C408-12 466 53 502 127l-67 32C410 102 366 59 303 59 197 59 129 176 129 333 129 491 197 607 303 607 363 607 407 570 434 516l66 32C464 617 406 678 303 678 146 678 47 532 47 333 47 134 146-12 303-12z" unicode="Ċ"></glyph><glyph d="M408 0l93 0-198 341 186 326-93 0-142-262-142 262-93 0 186-326-198-341 93 0 154 276z" unicode="Χ"></glyph><glyph d="M70 0l178 0C420 0 515 141 515 333 515 524 420 667 248 667l-178 0M150 71l0 525 98 0C372 596 433 483 433 333 433 184 371 71 248 71z" unicode="D"></glyph><glyph d="M248 723l70 0 80 144-47 0-68-106-72 106-46 0M70 0l178 0C420 0 515 141 515 333 515 524 420 667 248 667l-178 0M150 71l0 525 98 0C372 596 433 483 433 333 433 184 371 71 248 71z" unicode="Ď"></glyph><glyph d="M271 667l-177 0 0-306-78 0 0-62 78 0 0-299 177 0C443 0 539 141 539 333 539 524 443 667 271 667M271 71l-98 0 0 228 127 0 0 62-127 0 0 235 98 0C395 596 456 483 456 333 456 184 394 71 271 71z" unicode="Đ"></glyph><glyph d="M70 0l343 0 0 71-263 0 0 235 256 0 0 70-256 0 0 220 263 0 0 71-343 0z" unicode="E"></glyph><glyph d="M271 723l134 144-73 0-113-144M70 0l343 0 0 71-263 0 0 235 256 0 0 70-256 0 0 220 263 0 0 71-343 0z" unicode="É"></glyph><glyph d="M246 719C307 719 360 747 393 793l-36 30C332 787 291 765 246 765 201 765 160 788 136 823l-37-30C133 747 187 719 246 719M70 0l343 0 0 71-263 0 0 235 256 0 0 70-256 0 0 220 263 0 0 71-343 0z" unicode="Ĕ"></glyph><glyph d="M212 723l70 0 80 144-47 0-68-106-72 106-46 0M70 0l343 0 0 71-263 0 0 235 256 0 0 70-256 0 0 220 263 0 0 71-343 0z" unicode="Ě"></glyph><glyph d="M318 723l47 0-83 144-70 0-80-144 46 0 69 105M70 0l343 0 0 71-263 0 0 235 256 0 0 70-256 0 0 220 263 0 0 71-343 0z" unicode="Ê"></glyph><glyph d="M160 734C184 734 205 754 205 779 205 803 184 824 160 824 135 824 114 803 114 779 114 754 135 734 160 734M333 734C357 734 378 754 378 779 378 803 357 824 333 824 308 824 288 803 288 779 288 754 308 734 333 734M70 0l343 0 0 71-263 0 0 235 256 0 0 70-256 0 0 220 263 0 0 71-343 0z" unicode="Ë"></glyph><glyph d="M202 777C202 752 223 731 248 731 273 731 293 752 293 777 293 802 273 823 248 823 223 823 202 802 202 777M70 0l343 0 0 71-263 0 0 235 256 0 0 70-256 0 0 220 263 0 0 71-343 0z" unicode="Ė"></glyph><glyph d="M221 723l52 0-113 144-73 0M70 0l343 0 0 71-263 0 0 235 256 0 0 70-256 0 0 220 263 0 0 71-343 0z" unicode="È"></glyph><glyph d="M120 740l254 0 0 46-254 0M70 0l343 0 0 71-263 0 0 235 256 0 0 70-256 0 0 220 263 0 0 71-343 0z" unicode="Ē"></glyph><glyph d="M421 667l0-503-270 503-81 0 0-667 80 0 0 515 271-515 0-13C421-85 381-125 316-125 275-125 243-105 219-74l-37-61C220-178 267-196 322-196 425-196 501-140 501-14l0 681z" unicode="Ŋ"></glyph><glyph d="M364-133C342-133 326-120 326-96 326-63 356-30 413 0l0 71-263 0 0 235 256 0 0 70-256 0 0 220 263 0 0 71-343 0 0-667 284 0C300-30 262-68 262-112 262-162 303-186 349-186 374-186 397-180 413-170l-19 45C384-131 373-133 364-133z" unicode="Ę"></glyph><glyph d="M70 0l343 0 0 71-263 0 0 235 256 0 0 70-256 0 0 220 263 0 0 71-343 0z" unicode="Ε"></glyph><glyph d="M-13 570l37 0 57 200-75 0M92 0l343 0 0 71-263 0 0 235 256 0 0 70-256 0 0 220 263 0 0 71-343 0z" unicode="Έ"></glyph><glyph d="M423 0l80 0 0 667-80 0 0-289-273 0 0 289-80 0 0-667 80 0 0 307 273 0z" unicode="Η"></glyph><glyph d="M-13 570l37 0 57 200-75 0M445 0l80 0 0 667-80 0 0-289-273 0 0 289-79 0 0-667 79 0 0 307 273 0z" unicode="Ή"></glyph><glyph d="M271 667l-177 0 0-306-78 0 0-62 78 0 0-299 177 0C443 0 539 141 539 333 539 524 443 667 271 667M271 71l-98 0 0 228 127 0 0 62-127 0 0 235 98 0C395 596 456 483 456 333 456 184 394 71 271 71z" unicode="Ð"></glyph><glyph d="M321 59C237 59 178 131 156 238l210 0 0 50-218 0C146 303 146 318 146 333 146 349 146 365 148 380l218 0 0 51-210 0C179 536 238 607 321 607 380 607 424 570 450 516l67 32C481 617 423 678 321 678 190 678 100 578 72 431l-49 0 0-51 42 0C64 365 63 349 63 333 63 318 64 303 65 288l-42 0 0-50 49 0C98 89 190-12 321-12 425-12 482 53 519 127l-68 32C427 102 383 59 321 59z" unicode="€"></glyph><glyph d="M70 0l80 0 0 306 256 0 0 70-256 0 0 220 263 0 0 71-343 0z" unicode="F"></glyph><glyph d="M47 333C47 127 150-12 305-12 388-12 457 24 506 85l0 256-235 0 0-71 158 0 0-155C405 86 361 59 305 59 198 59 129 172 129 333 129 495 198 607 305 607 366 607 410 571 438 519l65 33C464 622 403 678 305 678 150 678 47 539 47 333z" unicode="G"></glyph><glyph d="M70 0l80 0 0 596 263 0 0 71-343 0z" unicode="Γ"></glyph><glyph d="M304 719C365 719 418 747 451 793l-36 30C390 787 349 765 304 765 259 765 218 788 194 823l-37-30C191 747 245 719 304 719M47 333C47 127 150-12 305-12 388-12 457 24 506 85l0 256-235 0 0-71 158 0 0-155C405 86 361 59 305 59 198 59 129 172 129 333 129 495 198 607 305 607 366 607 410 571 438 519l65 33C464 622 403 678 305 678 150 678 47 539 47 333z" unicode="Ğ"></glyph><glyph d="M376 723l47 0-83 144-70 0-80-144 46 0 69 105M47 333C47 127 150-12 305-12 388-12 457 24 506 85l0 256-235 0 0-71 158 0 0-155C405 86 361 59 305 59 198 59 129 172 129 333 129 495 198 607 305 607 366 607 410 571 438 519l65 33C464 622 403 678 305 678 150 678 47 539 47 333z" unicode="Ĝ"></glyph><glyph d="M47 333C47 127 150-12 305-12 388-12 457 24 506 85l0 256-235 0 0-71 158 0 0-155C405 86 361 59 305 59 198 59 129 172 129 333 129 495 198 607 305 607 366 607 410 571 438 519l65 33C464 622 403 678 305 678 150 678 47 539 47 333M259-130C259-155 280-176 305-176 330-176 350-155 350-130 350-105 330-84 305-84 280-84 259-105 259-130z" unicode="Ġ"></glyph><glyph d="M423 0l80 0 0 667-80 0 0-289-273 0 0 289-80 0 0-667 80 0 0 307 273 0z" unicode="H"></glyph><glyph d="M588 546l-69 0 0 121-80 0 0-121-273 0 0 121-80 0 0-121-70 0 0-47 70 0 0-499 80 0 0 307 273 0 0-307 80 0 0 499 69 0M439 378l-273 0 0 121 273 0z" unicode="Ħ"></glyph><glyph d="M358 723l47 0-83 144-70 0-80-144 46 0 69 105M423 0l80 0 0 667-80 0 0-289-273 0 0 289-80 0 0-667 80 0 0 307 273 0z" unicode="Ĥ"></glyph><glyph d="M70 0l80 0 0 667-80 0z" unicode="I"></glyph><glyph d="M70 0l80 0 0 667-80 0M229 49C267 6 314-12 369-12 472-12 547 45 547 171l0 496-79 0 0-494C468 100 428 59 363 59 322 59 290 80 265 111z" unicode="Ĳ"></glyph><glyph d="M134 723l134 144-73 0-113-144M70 0l80 0 0 667-80 0z" unicode="Í"></glyph><glyph d="M110 719C171 719 224 747 257 793l-36 30C196 787 155 765 110 765 65 765 24 788 0 823l-37-30C-3 747 51 719 110 719M70 0l80 0 0 667-80 0z" unicode="Ĭ"></glyph><glyph d="M181 723l47 0-83 144-70 0-80-144 46 0 69 105M70 0l80 0 0 667-80 0z" unicode="Î"></glyph></font>
</svg>
